Killer Elite (2011) HDRip NL subs DutchReleaseTeam [Actie&Thriller]

seeders: 146
leechers: 201
Added on Nov 2, 2011 by Koedje33.36K in Movies > Dubbed Movies
Torrent verified. Downloaded 13,486 times.

Summary:
When his mentor (Robert De Niro) is taken captive, a retired member of Britain's Elite Special Air Service (Jason Statham) is forced into action. His mission: kill three assassins dispatched by their cunning leader (Clive Owen).
Submitted by ROBBREDD698324
report summary
Killer Elite (2011) HDRip NL subs DutchReleaseTeam [Actie&Thriller] (Size: 703.11 MB)
  Killer Elite (2011) HDRip NL subs DutchReleaseTeam [Actie&Thriller].avi 698.68 MB
  sample.avi 4.14 MB
  Koedje.png 115.78 KB
  Multimediacafe.png 105.06 KB
  screenshot3.jpg 27.01 KB
  screenshot1.jpg 18.57 KB
  screenshot2.jpg 13.68 KB
  screenshot4.jpg 13.37 KB
  DutchReleaseTeam NFO.txt 474 bytes
  Torrent downloaded from Demonoid.me.txt 46 bytes

Description

image


Verenigde Staten / Australië
Actie / Thriller
105 minuten

geregisseerd door Gary McKendry
met Jason Statham, Robert De Niro en Clive Owen

Danny (Statham) is een ex-Navy Seal die serieus in de problemen komt als Hunter (De Niro), zijn beste vriend en mentor wordt ontvoerd in opdracht van een Arabische sjeik. Die laatste dwingt Danny een moord te plegen. Doet hij dat niet, dan sterft Hunter een ongetwijfeld pijnlijke en tragische dood.


Vertaald door Simply ReleaseS Toppers
Jesprulin en Markow87



Trailer:

http://www.youtube.com/watch?v=8F1wrDsUqYc




Screenshots:

image

image

image

image



INFO;


Video
ID : 0
Format : MPEG-4 Visual
Format profile : Advanced Simple@L5
Format settings, BVOP : 1
Format settings, QPel : No
Format settings, GMC : No warppoints
Format settings, Matrix : Custom
Codec ID : XVID
Codec ID/Hint : XviD
Duration : 1h 56mn
Bit rate : 709 Kbps
Width : 608 pixels
Height : 256 pixels
Display aspect ratio : 2.40:1
Frame rate : 29.970 fps
Color space : YUV
Chroma subsampling : 4:2:0
Bit depth : 8 bits
Scan type : Progressive
Compression mode : Lossy
Bits/(Pixel*Frame) : 0.152
Stream size : 591 MiB (85%)
Writing library : XviD 64

Audio
ID : 1
Format : MPEG Audio
Format version : Version 1
Format profile : Layer 3
Mode : Joint stereo
Mode extension : MS Stereo
Codec ID : 55
Codec ID/Hint : MP3
Duration : 1h 56mn
Bit rate mode : Variable
Bit rate : 115 Kbps
Nominal bit rate : 128 Kbps
Channel(s) : 2 channels
Sampling rate : 48.0 KHz
Compression mode : Lossy
Stream size : 95.6 MiB (14%)
Alignment : Aligned on interleaves
Interleave, duration : 24 ms (0.72 video frame)
Interleave, preload duration : 522 ms





Deze film wordt u aangeboden door het DutchReleaseTeam.
Voor de reviews van de nieuwste films, muziek, series, games etc
ga dan eens naar http://www.hetmultimediacafe.be

DutchReleaseteam = Hardcoded Dutch Subs





image image

Sharing Widget


Download torrent
703.11 MB
seeders:146
leechers:201
Killer Elite (2011) HDRip NL subs DutchReleaseTeam [Actie&Thriller]

Trackers

tracker name Status checked seeders leechers downloads
http://tracker.torrentbay.to:6969/announce
outdated 26 Sep 2013 - - -
http://tracker2.istole.it:6969/announce
outdated 26 Sep 2013 - - -
http://tracker.openbittorrent.com/announce
outdated 26 Sep 2013 - - -
http://inferno.demonoid.me:3408/announce
outdated 26 Sep 2013 - - -
udp://tracker.openbittorrent.com:80/announce
outdated 26 Sep 2013 - - -
http://tracker.istole.it/announce
outdated 26 Sep 2013 - - -
udp://tracker.publicbt.com:80/announce
outdated 26 Sep 2013 - - -
udp://tracker.1337x.org:80/announce
outdated 26 Sep 2013 - - -
udp://tracker.istole.it:80/announce
outdated 26 Sep 2013 - - -
http://cpleft.com:2710/announce
outdated 26 Sep 2013 - - -
http://exodus.desync.com:6969/announce
blocked 26 Sep 2013 - - -
http://tracker.publicbt.com/announce
deleted 26 Sep 2013 - - -
http://fr33dom.h33t.com:3310/announce
deleted 26 Sep 2013 - - -
http://9.rarbg.com:2710/announce
private 02 Nov 2011 - - -
http://tracker.novalayer.org:6969/announce
pending 26 Sep 2013 12 201 9
µTorrent compatible trackers list

Locations

name
KickassTorrents
ThePirateBay
Fenopy
Limetorrents
ExtraTorrent
Torrent hash: 91F4FCBE5991F714BB917C58FC918FEE8A8EBE8E

All Comments

audio
7/10
video
5/10
please, leave only comments related to that torrent
or sign-in
0
iNubz259 • 04 March 2014, 16:48
torrent downloaded
Show comment
audio: 7video: 3
Dit is geen HDrip maar een cam versie. Beetje jammer ik had meer verwacht van DRT want normaal klopt de beschrijving altijd.

Toch bedankt!
0
everlast6819 • 01 April 2013, 12:44
torrent downloaded
Show comment
thanksbiggrin
0
anonymous • 12 December 2012, 18:25 Show comment
Niet een super kwaliteit, maar wel redelijk. Film is te volgen.
0
anonymous • 26 September 2012, 20:40 Show comment
dank u
0
miszterjames91 • 19 June 2012, 20:22
torrent downloaded
Show comment
audio: 5video: 5
De kwaliteit is matig, de film opzich is wel te doen..
0
magdiragdag87 • 27 May 2012, 13:37
torrent downloaded
Show comment
audio: 7video: 5
Not great, the video quality disappointing
0
lamocco1540 • 18 April 2012, 13:28
torrent downloaded
Show comment
audio: 8video: 8
gheftig!!!! bedankt uploader!!!!
0
anonymous • 15 April 2012, 20:48 Show comment
audio: 5video: 1
This was terrible. Downloaded and deleted instantly. Video is grainy (like a good CAm or a bad TS) and there is a blurry grey bar where the subtitles are... look somewhere else
0
R0fly0udie29 • 21 March 2012, 16:32
torrent downloaded
Show comment
audio: 8video: 8
Good Shit :P

nice movie:
A=8 A=7
0
anonymous • 02 March 2012, 18:00 Show comment
Tnx everybody
Show More

User Opinions

RichardSorge2684, anahstje2016, yagoda1457, James T. Kirk©853, braders4502653, FToem416, headquarters251, techsoloboy140, SpicyMcHaggis104, WarlordN197 ... And 32 more
snijmes11500, iNubz259, Ray216
Report a bug