Ken Loach - Family Life (1971)

seeders: 9
leechers: 4
Added on Aug 29, 2010 in Movies
Torrent verified. Downloaded 10 times.

Ken Loach - Family Life (1971) (Size: 1.38 GB)
  Family.Life.1971.Ken.Loach.XviD.avi 1.38 GB
  Family.Life.1971.Ken.Loach.XviD.SPA.srt 96.42 KB
  Family.Life.1971.Ken.Loach.XviD.PTB.srt 95.07 KB

Description

Released in England as Wednesday's Child, this earnest socially conscious drama explores the generation-gap between a pair of overbearing, strict parents and their rebellious, pregnant daughter Sandy Ratcliff. First they force her to get an abortion. Then mom and dad further exert their power over Ratcliff by locking her out of the house until she ceases her troublesome ways. When this fails to "tame" the girl, the parents force her into psychiatric treatment. Subjected to shock therapy, Sandy ends up a shell of a human being, little more than a case study for those who've robbed her of her individuality. Shot in documentary fashion, Family Life won a prize at the 1972 Berlin Film Festival.


General
Complete name : Family.Life.1971.Ken.Loach.XviD.avi
Format : AVI
Format/Info : Audio Video Interleave
File size : 1.38 GiB
Duration : 1h 43mn
Overall bit rate : 1 910 Kbps
Writing application : VirtualDubMod 1.5.10.2 (build 2542/release)
Writing library : VirtualDubMod build 2542/release
Video #0
ID : 0
Format : MPEG-4 Visual
Format profile : AdvancedSimple@L5
Format settings, BVOP : Yes
Format settings, QPel : No
Format settings, GMC : No warppoints
Format settings, Matrix : Default (MPEG)
Codec ID : XVID
Codec ID/Hint : XviD
Duration : 1h 43mn
Bit rate : 1 798 Kbps
Width : 720 pixels
Height : 528 pixels
Display aspect ratio : 4:3
Frame rate : 25.000 fps
Resolution : 24 bits
Colorimetry : 4:2:0
Scan type : Progressive
Bits/(Pixel*Frame) : 0.189
Stream size : 1.30 GiB (94%)
Writing library : XviD 1.2.1 (UTC 2008-12-04)
Audio #1
ID : 1
Format : MPEG Audio
Format version : Version 1
Format profile : Layer 3
Codec ID : 55
Codec ID/Hint : MP3
Duration : 1h 43mn
Bit rate mode : Variable
Bit rate : 98.9 Kbps
Minimum bit rate : 32.0 Kbps
Channel(s) : 2 channels
Sampling rate : 48.0 KHz
Resolution : 16 bits
Stream size : 73.4 MiB (5%)
Alignment : Aligned on interleaves
Interleave, duration : 24 ms (0.60 video frame)
Interleave, preload duration : 553 ms
Writing library : LAME3.98r
Encoding settings : -m j -V 5 -q 0 -lowpass 16.5 --vbr-new -b 32

http://www.imdb.com/title/tt0068569/

English audio; Spanish and Portuguese subtitles

From KG, posted by jotarapidup

Related Torrents

torrent name size files age seed leech

Sharing Widget


Download torrent
1.38 GB
seeders:9
leechers:4
Ken Loach - Family Life (1971)

Trackers

tracker name Status checked seeders leechers downloads
udp://tracker.publicbt.com:80/announce
outdated 03 Jul 2014 - - -
http://tracker.bittorrent.am/announce
outdated 03 Jul 2014 - - -
udp://tracker.openbittorrent.com:80/announce
outdated 03 Jul 2014 - - -
http://pow7.com/announce
outdated 03 Jul 2013 - - -
http://tracker.irc.su/announce
outdated 03 Jul 2013 - - -
http://exodus.1337x.org/announce
outdated 03 Jul 2013 - - -
http://tracker.openbittorrent.com/announce
outdated 03 Jul 2013 - - -
udp://tracker.torrentbox.com:2710/announce
outdated 03 Jul 2013 - - -
http://nemesis.1337x.org/announce
outdated 03 Jul 2013 - - -
http://tracker.publicbt.com/announce
deleted 03 Jul 2013 - - -
http://tracker.torrentbox.com:2710/announce
error 25 Sep 2010 - - -
http://torrent-download.to:5869/announce
error 29 Aug 2010 - - -
http://www.torrentsnipe.info:2701/announce
error 29 Aug 2010 - - -
http://www.sumotracker.com/announce
error 29 Aug 2010 - - -
http://tracker.torrentfr.org:56666/announce
error 29 Aug 2010 - - -
http://www.torrent-downloads.to:2710/announce
error 29 Aug 2010 - - -
ĀµTorrent compatible trackers list

Locations

name
ThePirateBay
Limetorrents
Limetorrents
Torrent hash: 54ba1c7ee4f7c384db9fa05f88d1f54be070f6ff

All Comments

audio
8/10
video
8/10
please, leave only comments related to that torrent
or sign-in
0
violettee7 • 07 May 2014, 12:07 Show comment
Good copy, thank you. Would you know where to find the English subtitles?
0
bflat568 • 12 May 2013, 09:25 Show comment
audio: 8video: 8
Excellent movie, thanks for the upload

User Opinions

Report a bug