Advertising (remove)

Karachi Doctor Enjoying xXx Hindi With Patient@Mastitorrents

seeders: 0
leechers: 1
Added on Jun 21, 2010 by mastitorrents18663 in XXX
Torrent verified. Downloaded 10 times.

Karachi Doctor Enjoying xXx Hindi With Patient@Mastitorrents (Size: 20.42 MB)
  Karachi Doctor.flv 20.21 MB
  Karachi_doctor.flv_thumbs_[2010.06.21_08.39.52].jpg 219.81 KB
Advertising (remove)

Description





General<br />
Complete name : Karachi doctor.flv<br />
Format : Flash Video<br />
File size : 20.2 MiB<br />
Duration : 5mn 59s<br />
Overall bit rate : 471 Kbps<br />
Tagged date : UTC 2009-11-21 15:46:11<br />
Tagging application : inlet media FLVTool2 v1.0.6 - http://www.inlet-media.de/flvtool2<br />
<br />
Video<br />
Format : VP6<br />
Duration : 5mn 59s<br />
Bit rate : 399 Kbps<br />
Width : 528 pixels<br />
Height : 400 pixels<br />
Display aspect ratio : 4:3<br />
Frame rate : 25.000 fps<br />
Bits/(Pixel*Frame) : 0.076<br />
Stream size : 17.2 MiB (85%)<br />
<br />
Audio<br />
Format : MPEG Audio<br />
Format version : Version 2<br />
Format profile : Layer 3<br />
Format_Settings_Mode : Joint stereo / MS Stereo<br />
Duration : 5mn 59s<br />
Bit rate mode : Constant<br />
Bit rate : 64.0 Kbps<br />
Channel(s) : 2 channels<br />
Sampling rate : 22.05 KHz<br />
Resolution : 16 bits<br />
Stream size : 2.90 MiB (14%)




image

Sharing Widget


Download torrent
20.42 MB
seeders:0
leechers:1
Karachi Doctor Enjoying xXx Hindi With Patient@Mastitorrents

Trackers

tracker name Status checked seeders leechers downloads
udp://tracker.openbittorrent.com:80/announce
outdated 01 Oct 2013 - - -
udp://tracker.publicbt.com:80/announce
outdated 01 Oct 2013 - - -
http://10.rarbg.com/announce
private 02 Nov 2012 - - -
http://pow7.com/announce
outdated 02 Nov 2012 - - -
http://tracker.istole.it/announce
outdated 02 Nov 2012 - - -
http://11.rarbg.com/announce
private 02 Nov 2012 - - -
http://photodiode.mine.nu/announce
outdated 02 Nov 2012 - - -
http://www.mastitorrents.com:30303/000058c9be4882484ad7c19e85529153/announce
outdated 02 Nov 2012 - - -
udp://tracker.istole.it:80/announce
outdated 02 Nov 2012 - - -
http://tracker.openbittorrent.com/announce
outdated 02 Nov 2012 - - -
http://tracker.publicbt.com/announce
deleted 11 Mar 2013 - - -
ĀµTorrent compatible trackers list

Locations

name author
KickassTorrents mastitorrents
ThePirateBay amanrulz
Fenopy
1337x
Torrent hash: 6a623c9ad74e81ec1b81856c4a90bc3131128778

All Comments

audio
0/10
video
0/10
please, leave only comments related to that torrent
or sign-in
0
sonahiya8 • 03 November 2012, 02:25
torrent downloaded
Show comment
so bad peer........
0
anonymous • 25 November 2010, 07:29 Show comment
gud....
0
wildwild20002245 • 17 September 2010, 20:08
torrent downloaded
Show comment
okay print..
audio - 2/10
video - 4/10
0
Drizzekiel41 • 07 July 2010, 02:45
torrent downloaded
Show comment
nice... TY
0
filefighter434 • 23 June 2010, 13:12
torrent downloaded
Show comment
bakwasss

User Opinions

Report a bug