Just Go With It 2011 720p BRRip x264 Feel-Free

seeders: 4
leechers: 2
Added on May 21, 2011 in Movies > Highres Movies
Torrent verified. Downloaded 37 times.

Just Go With It 2011 720p BRRip x264 Feel-Free (Size: 2.76 GB)
  2if006wkh7q85kos89v5.jpg 414.11 KB
  Just.Go.With.It.2011.720p.BRRip.x264. 2.82 KB
  Just.Go.With.It.2011.720p.BRRip.x264.Feel-Free.mp4 2.76 GB
  Just.Go.With.It.2011.720p.BRRip.x264.Feel-Free.srt 132.66 KB
  Torrent downloaded from extratorrent.com.txt 119 bytes
  vlcsnap-00001.png 1.12 MB
  vlcsnap-00002.png 1.09 MB
  vlcsnap-00005.png 1.41 MB
  vlcsnap-00006.png 1.48 MB
  vlcsnap-00007.png 1.4 MB
  vlcsnap-00008.png 890.54 KB

Description


image



Genre:Comedy | Romance

Language:English

IMDb:http://www.imdb.com/title/tt1564367/

Source:BluRay.x264-Felony

Subtitles:Romana



Format : MPEG-4

Format profile : Base Media

Codec ID : isom

File size : 2.76 GiB

Duration : 1h 56mn

Overall bit rate : 3 387 Kbps



Video

ID : 1

Format : AVC

Format/Info : Advanced Video Codec

Format profile : High@L4.1

Format settings, CABAC : Yes

Format settings, ReFrames : 3 frames

Codec ID : avc1

Codec ID/Info : Advanced Video Coding

Duration : 1h 56mn

Bit rate mode : Variable

Bit rate : 3 000 Kbps

Maximum bit rate : 12.8 Mbps

Width : 1 280 pixels

Height : 688 pixels

Display aspect ratio : 1.860

Frame rate mode : Constant

Frame rate : 23.976 fps

Color space : YUV

Chroma subsampling : 4:2:0

Bit depth : 8 bits

Scan type : Progressive

Bits/(Pixel*Frame) : 0.142

Stream size : 2.41 GiB (87%)

Writing library : x264



Audio

ID : 2

Format : AAC

Format/Info : Advanced Audio Codec

Format version : Version 4

Format profile : LC

Format settings, SBR : No

Codec ID : 40

Duration : 1h 56mn

Bit rate mode : Variable

Bit rate : 419 Kbps

Maximum bit rate : 532 Kbps

Channel(s) : 6 channels

Channel positions : Front: L C R, Side: L R, LFE

Sampling rate : 48.0 KHz

Stream size : 350 MiB (12%)





Plot:

On a weekend trip to Hawaii, a plastic surgeon convinces his loyal assistant

to pose as his soon-to-be-divorced wife in order to cover up a careless lie

he told to his much-younger girlfriend.



TRAILER:

[embed=youtube]http://www.youtube.com/watch?v=Jz5Ubqhru7g&feature=player_embedded[/embed]



image

image

image

image

image

image



Greets:



INK,CRYS,IMAGINE,LKRG,FXG,3Li,FLAWL3SS,TA,iLLUSiON,ViSiON,DTRG SAFCuk009,LU,TheFalcon007,MYSTiC,PrisM,Noir,WBZ,LAP,Rx,Kingdom,SAFCuk009+Fabreezy,HDLiTE,TWiZTED,ExtraTorrentRG.ELEKTRI4KA,MAGNAT,CM8

And to all the other p2p grps past and present









Make sure its a real Feel-Free release @ http://extratorrent.com




Related Torrents

torrent name size files age seed leech

Sharing Widget


Download torrent
2.76 GB
seeders:4
leechers:2
Just Go With It 2011 720p BRRip x264 Feel-Free

Trackers

tracker name Status checked seeders leechers downloads
http://10.rarbg.com/announce
private 09 May 2012 - - -
http://pow7.com/announce
outdated 09 May 2012 - - -
http://tracker.openbittorrent.com/announce
outdated 06 Oct 2011 - - -
udp://tracker.openbittorrent.com:80/announce
outdated 06 Oct 2011 - - -
udp://tracker.publicbt.com:80/announce
outdated 06 Oct 2011 - - -
http://exodus.1337x.org/announce
outdated 06 Oct 2011 - - -
http://genesis.1337x.org:1337/announce
outdated 06 Oct 2011 - - -
http://nemesis.1337x.org/announce
outdated 06 Oct 2011 - - -
http://tracker.publicbt.com/announce
deleted 06 Oct 2011 - - -
ĀµTorrent compatible trackers list

Locations

name
1337x
ExtraTorrent
ThePirateBay
Torrent hash: 7e4186209a0cabb3240d24f97826427a7ce95a7c

All Comments

audio
10/10
video
10/10
please, leave only comments related to that torrent
or sign-in
0
MES60861901 • 26 January 2014, 01:44
torrent downloaded
Show comment
19 Hours of nothing...
0
Nuttyhammer169 • 06 June 2011, 21:32
torrent downloaded
Show comment
audio: 10video: 10
work on comp, but not on ps3.
0
anonymous • 24 May 2011, 11:56 Show comment
dont download it sound wont work after 20mins
0
anonymous • 23 May 2011, 01:52 Show comment
this work with ps3?

User Opinions

Report a bug