JONAH HEX BRRIP 720P AC3 BBnRG

seeders: 1
leechers: 0
Added on Apr 13, 2011 in Movies > Highres Movies
Torrent verified. Downloaded 0 times.

Available in versions: 1080p720pBDRipHDRiPDVDDVDRipCamiPhone
JONAH HEX BRRIP 720P AC3 BBnRG (Size: 1015.51 MB)
  JONAH.HEX.BRRIP.720P.AC3.BBnRG.part15.rar 50 MB
  JONAH.HEX.BRRIP.720P.AC3.BBnRG.part01.rar 50 MB
  JONAH.HEX.BRRIP.720P.AC3.BBnRG.part03.rar 50 MB
  JONAH.HEX.BRRIP.720P.AC3.BBnRG.part18.rar 50 MB
  JONAH.HEX.BRRIP.720P.AC3.BBnRG.part19.rar 50 MB
  JONAH.HEX.BRRIP.720P.AC3.BBnRG.part12.rar 50 MB
  JONAH.HEX.BRRIP.720P.AC3.BBnRG.part13.rar 50 MB
  JONAH.HEX.BRRIP.720P.AC3.BBnRG.part20.rar 50 MB
  JONAH.HEX.BRRIP.720P.AC3.BBnRG.part02.rar 50 MB
  JONAH.HEX.BRRIP.720P.AC3.BBnRG.part06.rar 50 MB
  JONAH.HEX.BRRIP.720P.AC3.BBnRG.part14.rar 50 MB
  JONAH.HEX.BRRIP.720P.AC3.BBnRG.part09.rar 50 MB
  JONAH.HEX.BRRIP.720P.AC3.BBnRG.part07.rar 50 MB
  JONAH.HEX.BRRIP.720P.AC3.BBnRG.part11.rar 50 MB
  JONAH.HEX.BRRIP.720P.AC3.BBnRG.part16.rar 50 MB
  JONAH.HEX.BRRIP.720P.AC3.BBnRG.part05.rar 50 MB
  JONAH.HEX.BRRIP.720P.AC3.BBnRG.part10.rar 50 MB
  JONAH.HEX.BRRIP.720P.AC3.BBnRG.part17.rar 50 MB
  JONAH.HEX.BRRIP.720P.AC3.BBnRG.part04.rar 50 MB
  JONAH.HEX.BRRIP.720P.AC3.BBnRG.part08.rar 50 MB
  JONAH.HEX.BRRIP.720P.AC3.BBnRG.part21.rar 15.41 MB
  JONAH.HEX.BRRIP.720P.AC3.BBnRG.jpg 100.47 KB
  JONAH.HEX.BRRIP.720P.AC3.BBnRG.nfo 3.2 KB

Description


BBnRG present...



Complete name : JONAH.HEX.BRRIP.720P.AC3.BBnRG.mkv

Format : Matroska

File size : 1 015 MiB

Duration : 1h 21mn

Overall bit rate : 1 741 Kbps

Movie name : JONAH_HEX.Title100.BlurayRip

Encoded date : UTC 2011-04-12 14:09:54

Writing application : DVDFab

Writing library : libebml v0.7.8 + libmatroska v0.8.1



Video

ID : 1

Format : AVC

Format/Info : Advanced Video Codec

Format profile : High@L5.1

Format settings, CABAC : Yes

Format settings, ReFrames : 2 frames

Codec ID : V_MPEG4/ISO/AVC

Duration : 1h 21mn

Bit rate : 1 578 Kbps

Width : 1 280 pixels

Height : 720 pixels

Display aspect ratio : 16:9

Frame rate : 23.976 fps

Color space : YUV

Chroma subsampling : 4:2:0

Bit depth : 8 bits

Scan type : Progressive

Bits/(Pixel*Frame) : 0.071

Stream size : 920 MiB (91%)

Writing library : x264 core

Color primaries : BT.709-5, BT.1361, IEC 61966-2-4, SMPTE RP177

Transfer characteristics : BT.709-5, BT.1361

Matrix coefficients : BT.709-5, BT.1361, IEC 61966-2-4 709, SMPTE RP177



Audio

ID : 2

Format : AC-3

Format/Info : Audio Coding 3

Mode extension : CM (complete main)

Codec ID : A_AC3

Duration : 1h 21mn

Bit rate mode : Constant

Bit rate : 128 Kbps

Channel(s) : 2 channels

Channel positions : Front: L R

Sampling rate : 48.0 KHz

Bit depth : 16 bits

Compression mode : Lossy

Stream size : 74.6 MiB (7%)





Actors



Josh Brolin ... Jonah Hex

John Malkovich ... Quentin Turnbull

Megan Fox ... Lilah

Michael Fassbender ... Burke

Will Arnett ... Lieutenant Grass

John Gallagher Jr. ... Lieutenant Evan

Tom Wopat ... Colonel Slocum

Michael Shannon ... Doc Cross Williams

Wes Bentley ... Adleman Lusk

Julia Jones ... Cassie

Luke James Fleischmann ... Travis

Rio Hackford ... Grayden Nash

David Jensen ... Turnbull's Henchman

Billy Blair ... Turnbull's Gang - Billy

Sean Boyd ... Turnbull's Gang - Preacher





IMDB : http://www.imdb.com/title/tt1075747/
/>
Trailer :
http://www.imdb.com/video/imdb/vi623773465/
/>
Rating : 4.6/10





~Respect to~



Hoofa, Megarek, JWC, pjh20, Smile, Sleezy, VaLe, Chelle, alhs06, BB, BusyLizzy,

potsmokerr, bubble, KennyKern, mrssleezy, RANDC, Altezon



Screens



image



image



image



For all BBnRG releases visit our site



BITBITZ.NET




Sharing Widget


Download torrent
1015.51 MB
seeders:1
leechers:0
JONAH HEX BRRIP 720P AC3 BBnRG

Trackers

tracker name Status checked seeders leechers downloads
udp://tracker.openbittorrent.com:80/announce
outdated 13 Apr 2011 - - -
http://tracker.openbittorrent.com/announce
outdated 13 Apr 2011 - - -
udp://tracker.publicbt.com:80/announce
outdated 13 Apr 2011 - - -
http://tracker.publicbt.com/announce
deleted 13 Apr 2011 - - -
http://bitbitz.net/announce.php?passkey=47289641bdb4128e7bd1d02534c8b06b
pending 13 Apr 2011 1 0 0
ĀµTorrent compatible trackers list

Locations

name
1337x
Torrent hash: e9a6772e45e3cc969df11e65e702aa50632c408c

All Comments

audio
0/10
video
0/10
please, leave only comments related to that torrent
or sign-in
Report a bug