John Carter 2012 D TS ELEKTRI4KA

seeders: 4
leechers: 0
Added on Mar 10, 2012 in Movies
Torrent verified. Downloaded 6,027 times.

Summary:
Transplanted to Mars, a Civil War vet discovers a lush planet inhabited by 12-foot tall barbarians. Finding himself a prisoner of these creatures, he escapes, only to encounter a princess who is in desperate need of a savior.
Submitted by Thhaque330.76K
report summary
John Carter 2012 D TS ELEKTRI4KA (Size: 2.05 GB)
  John.Carter.2012.D.TS.ELEKTRI4KA.avi 2.05 GB
  fhgdh.nfo 144 bytes

Description

General
Complete name : John.Carter.2012.D.TS.ELEKTRI4KA
Format : AVI
Format/Info : Audio Video Interleave
File size : 2.05 GiB
Duration : 1h 56mn
Overall bit rate : 2 519 Kbps
Writing application : VirtualDubMod 1.5.10.2 (build 2540/release)
Writing library : VirtualDubMod build 2540/release

Video
ID : 0
Format : MPEG-4 Visual
Format profile : Advanced Simple@L5
Format settings, BVOP : 2
Format settings, QPel : No
Format settings, GMC : No warppoints
Format settings, Matrix : Default (MPEG)
Muxing mode : Packed bitstream
Codec ID : XVID
Codec ID/Hint : XviD
Duration : 1h 56mn
Bit rate : 2 321 Kbps
Width : 720 pixels
Height : 352 pixels
Display aspect ratio : 2.045
Frame rate : 25.000 fps
Color space : YUV
Chroma subsampling : 4:2:0
Bit depth : 8 bits
Scan type : Progressive
Compression mode : Lossy
Bits/(Pixel*Frame) : 0.350
Stream size : 1.81 GiB (88%)
Writing library : XviD 1.2.1 (UTC 2008-12-04)

Audio
ID : 1
Format : AC-3
Format/Info : Audio Coding 3
Mode extension : CM (complete main)
Codec ID : 2000
Duration : 1h 56mn
Bit rate mode : Constant
Bit rate : 192 Kbps
Channel(s) : 2 channels
Channel positions : Front: L R
Sampling rate : 48.0 KHz
Bit depth : 16 bits
Compression mode : Lossy
Stream size : 160 MiB (8%)
Alignment : Split accross interleaves

Related Torrents

torrent name size files age seed leech

Sharing Widget


Download torrent
2.05 GB
seeders:4
leechers:0
John Carter 2012 D TS ELEKTRI4KA

Trackers

tracker name Status checked seeders leechers downloads
udp://9.rarbg.com:2710/announce
outdated 30 Jan 2013 - - -
udp://tracker.1337x.org:80/announce
outdated 30 Jan 2013 - - -
http://10.rarbg.com/announce
private 30 Jan 2013 - - -
udp://tracker.publicbt.com:80/announce
outdated 30 Jan 2013 - - -
udp://tracker.istole.it:80/announce
outdated 30 Jan 2013 - - -
http://tracker.openbittorrent.com/announce
outdated 30 Jan 2013 - - -
udp://tracker.openbittorrent.com:80/announce
outdated 30 Jan 2013 - - -
udp://11.rarbg.com:80/announce
private 30 Jan 2013 - - -
http://exodus.desync.com:6969/announce
blocked 30 Jan 2013 - - -
http://tracker.publicbt.com/announce
deleted 11 Mar 2013 - - -
udp://15.rarbg.com:27015/announce
pending 30 Jan 2013 0 0 0
ĀµTorrent compatible trackers list

Locations

name
ThePirateBay
Torrent hash: d31bf1b0a7ab26e95cfbf8f9193138313a3aad5c

All Comments

audio
1/10
video
1/10
please, leave only comments related to that torrent
or sign-in
0
Roselead3 • 22 April 2012, 14:37 Show comment
audio: 1video: 1
0
vega99566 • 29 March 2012, 20:40
torrent downloaded
Show comment
eyxarhsto poli paidia
0
phlr201213 • 18 March 2012, 09:24 Show comment
audio: 1video: 1
Horrible image!
Do not start from the beginning|
Audio unusefull!
0
anonymous • 13 March 2012, 08:31 Show comment
audio: 10video: 10
0
anonymous • 11 March 2012, 22:39 Show comment
bullsh its great
0
anonymous • 10 March 2012, 11:46 Show comment
audio: 1video: 1
worst ever its a to dark for a cam:(

User Opinions

Report a bug