Jhalak Dikhla Ja Season 5 Finale & Grand Finale 2012

seeders: 2
leechers: 7
Added on Oct 1, 2012 by arsenal_20124231 in TV
Torrent verified. Downloaded 278 times.

Jhalak Dikhla Ja Season 5 Finale & Grand Finale 2012 (Size: 1.61 GB)
  Jhalak Dikhla Ja Season 5 Finale 29th September 2012
  Jhalak Dikhla Ja Season 5 Grand Finale 30th September 2012
  Torrent Tracked By DesiDhamal.com.txt 562 bytes

Description

image


Jhalak Dikhla Ja Season 5 Finale 29th September 2012.mp4
Format : MPEG-4
Codec ID : M4V 
File size : 624 MiB
Duration : 54mn 31s
Overall bit rate mode : Variable
Overall bit rate : 1 601 Kbps
Writing application : Lavf52.32.0

Video
ID : 1
Format : MPEG-4 Visual
Format profile : Simple@L3
Format settings, BVOP : No
Format settings, QPel : No
Format settings, GMC : No warppoints
Format settings, Matrix : Default (H.263)
Codec ID : 20
Duration : 54mn 31s
Bit rate : 1 500 Kbps
Width : 640 pixels
Height : 360 pixels
Display aspect ratio : 16:9
Frame rate mode : Constant
Frame rate : 30.000 fps
Color space : YUV
Chroma subsampling : 4:2:0
Bit depth : 8 bits
Scan type : Progressive
Compression mode : Lossy
Bits/(Pixel*Frame) : 0.217
Stream size : 585 MiB (94%)
Writing library : XviD 1.1.2 (UTC 2006-11-01)

Audio
ID : 2
Format : AAC
Format/Info : Advanced Audio Codec
Format profile : LC
Codec ID : 40
Duration : 54mn 31s
Bit rate mode : Variable
Bit rate : 96.0 Kbps
Channel(s) : 2 channels
Channel positions : Front: L R
Sampling rate : 48.0 KHz
Compression mode : Lossy
Stream size : 37.4 MiB (6%)


image

image


Jhalak Dikhla Ja Season 5 Grand Finale 30th September 2012.mp4
Format : MPEG-4
Codec ID : M4V 
File size : 1.00 GiB
Duration : 1h 29mn
Overall bit rate mode : Variable
Overall bit rate : 1 601 Kbps
Writing application : Lavf52.32.0

Video
ID : 1
Format : MPEG-4 Visual
Format profile : Simple@L3
Format settings, BVOP : No
Format settings, QPel : No
Format settings, GMC : No warppoints
Format settings, Matrix : Default (H.263)
Codec ID : 20
Duration : 1h 29mn
Bit rate : 1 500 Kbps
Width : 640 pixels
Height : 360 pixels
Display aspect ratio : 16:9
Frame rate mode : Constant
Frame rate : 30.000 fps
Color space : YUV
Chroma subsampling : 4:2:0
Bit depth : 8 bits
Scan type : Progressive
Compression mode : Lossy
Bits/(Pixel*Frame) : 0.217
Stream size : 961 MiB (94%)
Writing library : XviD 1.1.2 (UTC 2006-11-01)

Audio
ID : 2
Format : AAC
Format/Info : Advanced Audio Codec
Format profile : LC
Codec ID : 40
Duration : 1h 29mn
Bit rate mode : Variable
Bit rate : 96.0 Kbps
Channel(s) : 2 channels
Channel positions : Front: L R
Sampling rate : 48.0 KHz
Compression mode : Lossy
Stream size : 61.5 MiB (6%)


image

*** All Credits Goes To : Desirippers ***

image

image

Sharing Widget


Download torrent
1.61 GB
seeders:2
leechers:7
Jhalak Dikhla Ja Season 5 Finale & Grand Finale 2012

Trackers

tracker name Status checked seeders leechers downloads
http://tracker.istole.it/announce
outdated 21 Sep 2013 - - -
udp://tracker.openbittorrent.com:80/announce
outdated 21 Sep 2013 - - -
udp://tracker.publicbt.com:80/announce
outdated 21 Sep 2013 - - -
udp://tracker.1337x.org:80/announce
outdated 21 Sep 2013 - - -
udp://tracker.istole.it:80/announce
outdated 21 Sep 2013 - - -
http://www.desidhamal.com:2710/pcstfk4vqxwugd3y7ja770ffqqat2orr/announce
outdated 21 Sep 2013 - - -
http://exodus.desync.com:6969/announce
blocked 21 Sep 2013 - - -
http://tracker.publicbt.com/announce
deleted 21 Sep 2013 - - -
udp://fr33dom.h33t.com:3310/announce
deleted 21 Sep 2013 - - -
udp://fr33domtracker.h33t.com:3310/announce
deleted 21 Sep 2013 - - -
µTorrent compatible trackers list

Locations

name
KickassTorrents
Torrent hash: 1F5DE4B254C30D65431E4EF8951954891F595236

All Comments

audio
0/10
video
0/10
please, leave only comments related to that torrent
or sign-in

User Opinions

Report a bug