Jennifer Hudson, NeYo - Think Like A Man ft. Rick Ross 720p HD 2012 - cRcWoRLd

seeders: 14
leechers: 0
Added on Mar 1, 2012 by CRCWORLD2054 in Movies > Music videos
Torrent verified. Downloaded 10 times.

Jennifer Hudson, NeYo - Think Like A Man ft. Rick Ross 720p HD 2012 - cRcWoRLd (Size: 59.92 MB)
  Jennifer Hudson, NeYo - Think Like A Man ft. Rick Ross 720p HD 2012 - cRcWoRLd.mp4 59.92 MB
  Torrent downloaded from AhaShare.com.txt 66 bytes
  Torrent downloaded from Silvertorrents.me.txt 52 bytes
  Torrent downloaded from extratorrent.com.txt 51 bytes
  Torrent downloaded from Torrentstate.com.txt 46 bytes
  Torrent downloaded from Demonoid.me.txt 46 bytes
  Torrent downloaded from Kickasstorrents.com.txt 43 bytes
  torrent downloaded from H33T.com.txt 43 bytes
  Torrent downloaded from 1337x.org.txt 24 bytes

Description

image

Lyrics-

[Chorus]But in love, in love, in love, in love You gotta act like a woman but think like a man But in love, in love, in love, in love You gotta act like a woman but think like a man

[Jennifer Hudson]Why you told me you dream bed And foolish of me I believe that You said every king needs his queen babe That's why you needed me baby Right in between lust and love You go and mess things up Now there's no we babe There's just you and there's me baby
There was us, there was trust There was happen and change, I know Silly you, silly me, silly us, what a waste

[Chorus]But in love, in love, in love, in love You gotta act like a woman but think like a man But in love, in love, in love, in love You gotta act like a woman but think like a man

[Ne-Yo]Now I'ma keep it realer with you now that I ever been we shoulda never been, girl we was better friends You didn't had to tell me, what, where, why and when Um I didn't either , Cause you wasn't my girlfriend, we had a good thing You would come by and kick it , ooh give me that good thang Then after we were finished, You go your way, I go my way, it was whatever Tell me what the hell made us Think this was gon be better And now i'm telling you lies, All because I hate to see the tears in your eyes [ From: http://www.metrolyrics.com/think-like-a-man-lyrics-jennifer-hudson.html ] Of course I want my cake, and eat it too, i'm a guy
And of course, you don't understand, But you would if you thought like a man in love

[Chorus]But in love, in love,in love, in love You gotta act like a woman but think like a man But in love, in love, in love, in love You gotta act like a woman but think like a man

[Rick Ross]Time cost money and it's so expensive Versace, lenny got these women blowing kisses Leaning on my auto, she's so photogenic Can I take a picture, she's my mona lisa Living like a princess in a fairy tale You know them people up in barney show and tell Bentley black and not a ninja see no poney tail 5 karat yellow diamond you don't know me well Penthouse, set the drunks, it don't call and sell She caught a attitude I had to call a cab You don't understand it's altitude i'm balling at I'm at the game on the wood where the owner at

[Bridge]So different but the same, Boy you taught me everything Yeah you show me how you think, You're the only one to blame It's such a shame, Yeah should lost the game you tell me how to play

[Chorus]But In love, in love, in love, in love You gotta act like a woman, but think like a man But in love, in love,in love, in love You gotta act like a woman but think like a man Act like a woman, act like a woman Gotta act like a woman

General
Complete name : Jennifer Hudson, NeYo - Think Like A Man ft. Rick Ross 720p HD 2012 - cRcWoRLd.mp4
Format : MPEG-4
Format profile : Base Media / Version 2
Codec ID : mp42
File size : 59.9 MiB
Duration : 5mn 39s
Overall bit rate mode : Variable
Overall bit rate : 1 480 Kbps
Encoded date : UTC 2012-02-23

Video
ID : 1
Format : AVC
Format/Info : Advanced Video Codec
Format profile : High@L3.1
Format settings, CABAC : Yes
Format settings, ReFrames : 1 frame
Codec ID : avc1
Codec ID/Info : Advanced Video Coding
Duration : 5mn 39s
Bit rate : 1 326 Kbps
Maximum bit rate : 3 136 Kbps
Width : 1 280 pixels
Height : 720 pixels
Display aspect ratio : 16:9
Frame rate mode : Constant
Frame rate : 23.976 fps
Color space : YUV
Chroma subsampling : 4:2:0
Bit depth : 8 bits
Scan type : Progressive
Bits/(Pixel*Frame) : 0.060
Stream size : 53.7 MiB (90%)

Audio
ID : 2
Format : AAC
Format/Info : Advanced Audio Codec
Format profile : LC
Codec ID : 40
Duration : 5mn 39s
Bit rate mode : Variable
Bit rate : 152 Kbps
Maximum bit rate : 214 Kbps
Channel(s) : 2 channels
Channel positions : Front: L R
Sampling rate : 44.1 KHz
Compression mode : Lossy
Stream size : 6.15 MiB (10%)


image

image

image

image

Sharing Widget


Download torrent
59.92 MB
seeders:14
leechers:0
Jennifer Hudson, NeYo - Think Like A Man ft. Rick Ross 720p HD 2012 - cRcWoRLd

Trackers

tracker name Status checked seeders leechers downloads
udp://tracker.openbittorrent.com:80/announce
outdated 18 Nov 2013 - - -
udp://tracker.publicbt.com:80/announce
outdated 18 Nov 2013 - - -
http://tracker.torrentbay.to:6969/announce
outdated 02 Dec 2012 - - -
http://cpleft.com:2710/announce
outdated 28 Aug 2012 - - -
http://tracker.openbittorrent.com/announce
outdated 28 Aug 2012 - - -
http://inferno.demonoid.me:3418/announce
outdated 28 Aug 2012 - - -
udp://tracker.1337x.org:80/announce
outdated 28 Aug 2012 - - -
http://tracker.token.ro/announce
outdated 28 Aug 2012 - - -
http://pow7.com/announce
outdated 28 Aug 2012 - - -
http://exodus.desync.com:6969/announce
blocked 28 Aug 2012 - - -
http://i.bandito.org/announce
deleted 18 Nov 2013 - - -
http://fr33dom.h33t.com:3310/announce
deleted 20 May 2013 - - -
http://tracker.publicbt.com/announce
deleted 11 Mar 2013 - - -
http://www.h33t.com:3310/announce
deleted 09 Nov 2012 - - -
http://9.rarbg.com:2710/announce
private 01 Mar 2012 - - -
http://tracker.novalayer.org:6969/announce
pending 28 Aug 2012 0 0 0
http://beta.mytracker.me:6969/announce
pending 28 Aug 2012 166 37 375
ĀµTorrent compatible trackers list

Locations

name
KickassTorrents
Torrent hash: 5861C5BE2B1C3E7451DF541E1F511BD395518E57

All Comments

please, leave only comments related to that torrent
or sign-in
0
Tyrker12.71K • 28 March 2013, 11:42
torrent downloaded
Show comment
Thanks mate
0
anonymous • 13 August 2012, 15:55 Show comment
dos not play on ps3
0
anonymous • 13 August 2012, 15:54 Show comment
does not play on ps3
0
lex4186812 • 26 April 2012, 21:51
torrent downloaded
Show comment
audio: 7video: 8
good copy playable
0
anonymous • 24 April 2012, 23:47 Show comment
its a damn music vid lol
0
Chronic_91213.19K • 23 April 2012, 15:31
torrent downloaded
Show comment
audio: 10video: 10
Thanks Uploade , Just needs to be converted and it works fine A+++
0
anonymous • 25 April 2012, 22:04 Show comment
how do I do it ?
1
kia_jai621 • 20 April 2012, 19:48
torrent downloaded
Show comment
Didnt play at all.
0
anonymous • 20 April 2012, 16:06 Show comment
hope to see the full movie posted very soon they say it very good
0
SuperDave1281609 • 03 April 2012, 17:27
torrent downloaded
Show comment
audio: 10video: 10
audio 10 video 10 great video movie comes out on my birth day!!!!! thank you Chitra.dmj
0
enzo806 • 21 March 2012, 09:45
torrent downloaded
Show comment
Nice

User Opinions

Chronic_91213.19K, toot8657099, JackAtKat4278, HollywoodScoob773, jtodd1967615, Cynika420490, brownlm7392, Paradice358, poolestina223, MsMyesha94 ... And 28 more
Exlord3454, kia_jai621, andre2323493, hunnicrock257, kuntryboy48
Report a bug