Jau Tithe Khau 2007 Marathi Movie

seeders: 0
leechers: 3
Added on Jun 15, 2010 in Movies
Downloaded 10 times.

Jau Tithe Khau 2007 Marathi Movie (Size: 696.91 MB)
  Jau Tithe Khau [2007] - Xvid - 1 CD DVDRip - MDG.avi 695.76 MB
  1tpn4p.jpg.png 234.54 KB
  xei3s.jpg.png 193.96 KB
  33p4pr5.jpg.png 177.88 KB
  2v9xdue.jpg.png 166.75 KB
  1yoehx.jpg.png 157.17 KB
  2h6yjcy.jpg.png 127.82 KB
  16bbucg.jpg.png 118.17 KB

Description

Jau Tithe Khau 2007

Cast -
Makrand Anaspure, Chetan Dalvi, Deepali Sayyad, Ujwala Jog
and Kuldeep Pawar.




Code:
General
Name : Jau Tithe Khau
Format : AVI
Format/Info : Audio Video Interleave
Format profile : OpenDML
File size : 696 MiB
Duration : 2h 5mn
Overall bit rate : 773 Kbps
Writing application : AVI-Mux GUI 1.17.8.3

Video
ID : 0
Format : MPEG-4 Visual
Format profile : Advanced Simple@L5
Format settings, BVOP : Yes
Format settings, QPel : Yes
Format settings, GMC : No warppoints
Format settings, Matrix : Default (H.263)
Codec ID : XVID
Codec ID/Hint : XviD
Duration : 2h 5mn
Bit rate : 706 Kbps
Width : 608 pixels
Height : 256 pixels
Display aspect ratio : 2.35:1
Frame rate : 25.000 fps
Resolution : 8 bits
Colorimetry : 4:2:0
Scan type : Progressive
Bits/(Pixel*Frame) : 0.181
Stream size : 635 MiB (91%)
Writing library : XviD 1.2.1

Audio
ID : 1
Format : MPEG Audio
Format version : Version 2
Format profile : Layer 3
Mode : Joint stereo
Format_Settings_ModeExtension : MS Stereo
Codec ID : 55
Codec ID/Hint : MP3
Duration : 2h 5mn
Bit rate mode : Constant
Bit rate : 64.0 Kbps
Channel(s) : 2 channels
Sampling rate : 24.0 KHz
Stream size : 57.6 MiB (8%)
Alignment : Aligned on interleaves
Interleave, duration : 957 ms (23.91 video frames)
Interleave, preload duration : 216 ms
Title : Jau Tithe Khau T80 2_0ch 192Kbps DELAY 0ms
Writing library : LAME3.98r


Source : DVD 9
Ripper : Nordmariner



Synopsis

Quote:
Mukund (Makrand Anaspure) is hard working and intelligent young man, who is unable to find a job. He faces a lot of issues in his day to day life for he things which he has to depend on. He is asked by officers at different posts for he bribe like at electricity board, pension office. Enraged by this behavior and the corrupt political system he decides to fight against the system. He is helped by his girlfriend Lekha (Deepali Syed) and few friends. Based upon this help he applies for a government scheme in which the person is entitled for loan approval on getting a well dug. By bribing all the officers in the loop, he manages to get the loan approved without even digging the well.At the climax he files a case in the police station and court about his well getting stolen. However ince well is a structure nobody can prove that it was stolen. But since Mukund had created the proofs for his actions after bribing, nobody could stand and ultimately Mukund wins the Lawsuit.

screen shots




Sharing Widget


Download torrent
696.91 MB
seeders:0
leechers:3
Jau Tithe Khau 2007 Marathi Movie

Trackers

tracker name Status checked seeders leechers downloads
http://exodus.1337x.org/announce
outdated 27 Dec 2012 - - -
udp://tracker.istole.it:80/announce
outdated 27 Dec 2012 - - -
http://nemesis.1337x.org/announce
outdated 27 Dec 2012 - - -
http://genesis.1337x.org:1337/announce
outdated 27 Dec 2012 - - -
udp://tracker.publicbt.com:80/announce
outdated 27 Dec 2012 - - -
udp://tracker.openbittorrent.com:80/announce
outdated 27 Dec 2012 - - -
udp://fr33domtracker.h33t.com:3310/announce
deleted 27 Dec 2012 - - -
µTorrent compatible trackers list

Locations

name
ExtraTorrent
Torrent hash: 59c0a5a48b768af6532debffb610895a4368600d

All Comments

audio
7/10
video
9/10
please, leave only comments related to that torrent
or sign-in
0
mikeshot1169 • 13 May 2012, 04:46
torrent downloaded
Show comment
audio: 5video: 9
Movie is fantastic
good print../ but voice is slightly cracking
0
AshfaqSuhail311 • 26 May 2011, 13:50
torrent downloaded
Show comment
audio: 10video: 10

User Opinions

Report a bug