jackass3d 2010 cam divx[bouncey-torrents co uk]

seeders: 0
leechers: 1
Added on Nov 7, 2010 by biatch03807 in Movies
Downloaded 2 times.

jackass3d 2010 cam divx[bouncey-torrents co uk] (Size: 414.13 MB)
  Jackass3D.2010.Divx.nfo 2.62 KB
  jackass 3d 2010.part01.rar 14.31 MB
  jackass 3d 2010.part01.sfv 2.98 KB
  jackass 3d 2010.part02.rar 14.31 MB
  jackass 3d 2010.part03.rar 14.31 MB
  jackass 3d 2010.part04.rar 14.31 MB
  jackass 3d 2010.part05.rar 14.31 MB
  jackass 3d 2010.part06.rar 14.31 MB
  jackass 3d 2010.part07.rar 14.31 MB
  jackass 3d 2010.part08.rar 14.31 MB
  jackass 3d 2010.part09.rar 14.31 MB
  jackass 3d 2010.part10.rar 14.31 MB
  jackass 3d 2010.part11.rar 14.31 MB
  jackass 3d 2010.part12.rar 14.31 MB
  jackass 3d 2010.part13.rar 14.31 MB
  jackass 3d 2010.part14.rar 14.31 MB
  jackass 3d 2010.part15.rar 14.31 MB
  jackass 3d 2010.part16.rar 14.31 MB
  jackass 3d 2010.part17.rar 14.31 MB
  jackass 3d 2010.part18.rar 14.31 MB
  jackass 3d 2010.part19.rar 14.31 MB
  jackass 3d 2010.part20.rar 14.31 MB
  jackass 3d 2010.part21.rar 14.31 MB
  jackass 3d 2010.part22.rar 14.31 MB
  jackass 3d 2010.part23.rar 14.31 MB
  jackass 3d 2010.part24.rar 14.31 MB
  jackass 3d 2010.part25.rar 14.31 MB
  jackass 3d 2010.part26.rar 14.31 MB
  jackass 3d 2010.part27.rar 14.31 MB
  jackass 3d 2010.part28.rar 14.31 MB
  jackass 3d 2010.part29.rar 13.58 MB

Description

Format : AVI



Format/Info : Audio Video Interleave



File size : 434 MiB



Duration : 1h 32mn



Overall bit rate : 658 Kbps



Writing library : MPlayer







Video



ID : 0



Format : MPEG-4 Visual



Format profile : Simple@L1



Format settings, BVOP : No



Format settings, QPel : No



Format settings, GMC : No warppoints



Format settings, Matrix : Default (H.263)



Codec ID : DX50



Codec ID/Hint : DivX 5



Duration : 1h 32mn



Bit rate : 493 Kbps



Width : 480 pixels



Height : 320 pixels



Display aspect ratio : 3:2



Frame rate : 24.000 fps



Color space : YUV



Chroma subsampling : 4:2:0



Bit depth : 8 bits



Scan type : Interlaced



Scan order : Top Field First



Bits/(Pixel*Frame) : 0.134



Stream size : 325 MiB (75%)



Writing library : Lavc52.0.0







Audio



ID : 1



Format : MPEG Audio



Format version : Version 1



Format profile : Layer 3



Mode : Joint stereo



Mode extension : MS Stereo



Codec ID : 55



Codec ID/Hint : MP3



Duration : 1h 32mn



Bit rate mode : Constant



Bit rate : 160 Kbps



Channel(s) : 2 channels



Sampling rate : 44.1 KHz



Stream size : 106 MiB (24%)



Alignment : Split accross interleaves



Interleave, duration : 500 ms (12.00 video frames)



Interleave, preload duration : 500 ms



Johnny Knoxville and company return for the third installment of their TV show spin-off, where dangerous stunts and explicit public displays rule.

Director:

Jeff Tremaine

Writer:

Preston Lacy

Release Date:

5 November 2010 (UK)

Related Torrents

torrent name size files age seed leech

Sharing Widget


Download torrent
414.13 MB
seeders:0
leechers:1
jackass3d 2010 cam divx[bouncey-torrents co uk]

Trackers

tracker name Status checked seeders leechers downloads
udp://tracker.openbittorrent.com:80/announce
outdated 07 Nov 2010 - - -
http://tracker.openbittorrent.com/announce
outdated 07 Nov 2010 - - -
udp://tracker.publicbt.com:80/announce
outdated 07 Nov 2010 - - -
http://tracker.publicbt.com/announce
deleted 18 Aug 2011 - - -
http://bouncey-torrents.co.uk/announce.php?passkey=tssespecialtorrentv1byxamsep2007
error 07 Nov 2010 - - -
ĀµTorrent compatible trackers list

Locations

name
KickassTorrents
Torrent hash: 7a1932baf3233d9432a5aaa34b9702d425f3535d

All Comments

audio
0/10
video
0/10
please, leave only comments related to that torrent
or sign-in
0
Trinity11003899 • 22 November 2010, 15:41
torrent downloaded
Show comment
not download

User Opinions

Report a bug