Jack And Jill 2011 TS READNFO XViD - U.S.M

seeders: 1
leechers: 0
Added on Nov 28, 2011 in Movies
Torrent verified. Downloaded 0 times.

  • Movie: Jack and Jill
  • Detected quality: TeleSync
  • IMDb link: 0810913
  • IMDb rating: 3.3 (16,103 votes)
  • RottenTomatoes: 3% 38%
  • Genre: Comedy
Summary:
Family guy Jack Sadelstein prepares for the annual event he dreads: the Thanksgiving visit of his twin sister, the needy and passive-aggressive Jill, who then refuses to leave.
Submitted by Anette14101.06K
report summary
Jack And Jill 2011 TS READNFO XViD - U.S.M (Size: 1.4 GB)
  BLUR SAMPLE.avi 15.36 MB
  BLUR SAMPLE.sfv 6.21 KB
  Jack And Jill 2011 TS READNFO XViD - U.S.M.nfo 5.47 KB
  JJ.rar 14.31 MB
  JJ.rar 14.31 MB
  JJ.rar 14.31 MB
  JJ.rar 14.31 MB
  JJ.rar 14.31 MB
  JJ.rar 14.31 MB
  JJ.rar 14.31 MB
  JJ.rar 14.31 MB
  JJ.rar 14.31 MB
  JJ.rar 14.31 MB
  JJ.rar 14.31 MB
  JJ.rar 14.31 MB
  JJ.rar 14.31 MB
  JJ.rar 14.31 MB
  JJ.rar 14.31 MB
  JJ.rar 14.31 MB
  JJ.rar 14.31 MB
  JJ.rar 14.31 MB
  JJ.rar 14.31 MB
  JJ.rar 14.31 MB
  JJ.rar 14.31 MB
  JJ.rar 14.31 MB
  JJ.rar 14.31 MB
  JJ.rar 14.31 MB
  JJ.rar 14.31 MB
  JJ.rar 14.31 MB
  JJ.rar 14.31 MB
  And 73 files more

Description

-
http://www.Speed.Cd fast and The Hottest Private Tracker on the net

signup is open now

Please Seed back to make the speed Faster!!!

------------------nfo--------------------------
-UUUUUUUU UUUUUUUU SSSSSSSSSSSSSSS MMMMMMMM MMMMMMMM
U::::::U U::::::U SS:::::::::::::::S M:::::::M M:::::::M
U::::::U U::::::U S:::::SSSSSS::::::S M::::::::M M::::::::M
UU:::::U U:::::UU S:::::S SSSSSSS M:::::::::M M:::::::::M
U:::::U U:::::U S:::::S M::::::::::M M::::::::::M
U:::::D D:::::U S:::::S M:::::::::::M M:::::::::::M
U:::::D D:::::U S::::SSSS M:::::::M::::M M::::M:::::::M
U:::::D D:::::U SS::::::SSSSS M::::::M M::::M M::::M M::::::M
U:::::D D:::::U SSS::::::::SS M::::::M M::::M::::M M::::::M
U:::::D D:::::U SSSSSS::::S M::::::M M:::::::M M::::::M
U:::::D D:::::U S:::::S M::::::M M:::::M M::::::M
U::::::U U::::::U S:::::S M::::::M MMMMM M::::::M
U:::::::UUU:::::::U SSSSSSS S:::::S M::::::M M::::::M
UU:::::::::::::UU ...... S::::::SSSSSS:::::S ...... M::::::M M::::::M
UU:::::::::UU .::::. S:::::::::::::::SS .::::. M::::::M M::::::M
UUUUUUUUU ...... SSSSSSSSSSSSSSS ...... MMMMMMMM MMMMMMMM



Jack And Jill 2011 TS READNFO XViD - U.S.M


SOURCES:

Special Friends

IMDB:
www.imdb.com/title/tt0810913/

Video
ID : 0
Format : MPEG-4 Visual
Format profile : Advanced Simple@L5
Format settings, BVOP : 2
Format settings, QPel : No
Format settings, GMC : No warppoints
Format settings, Matrix : Default (MPEG)
Muxing mode : Packed bitstream
Codec ID : XVID
Codec ID/Hint : XviD
Duration : 1h 28mn
Bit rate : 2 071 Kbps
Width : 720 pixels
Height : 400 pixels
Display aspect ratio : 16:9
Frame rate : 23.976 fps
Color space : YUV
Chroma subsampling : 4:2:0
Bit depth : 8 bits
Scan type : Progressive
Compression mode : Lossy
Bits/(Pixel*Frame) : 0.300
Stream size : 1.28 GiB (94%)
Writing library : XviD 64

Audio
ID : 1
Format : MPEG Audio
Format version : Version 1
Format profile : Layer 3
Codec ID : 55
Codec ID/Hint : MP3
Duration : 1h 28mn
Bit rate mode : Constant
Bit rate : 128 Kbps
Channel(s) : 2 channels
Sampling rate : 44.1 KHz
Compression mode : Lossy
Delay relative to video : 15ms
Stream size : 81.2 MiB (6%)
Alignment : Split accross interleaves
Interleave, duration : 42 ms (1.00 video frame)
Interleave, preload duration : 500 ms


WORKDONE:

First off like to give a big shout too our friends for the source files for both video and audio :D
Now man what a job this needed.....took several hrs and one over two days.
First the readnfo ...now this is because the source files was in 2 parts ...part 1 was very blurry and not so good.
Now part 2 was REALLY nice for a cam .....
Just so you now part 1 last for roughly 32-33 mins then it switches over to the mint cam.
Work done .....hell fecking loads,firstly it was best to sync both parts before any cutting so this way i had the full video
to sync to and makes it alot easier....well sort of lol.
The first part had some movements that seem to make the audio go oos,so needed to cut into eight parts and synced it that way,will
say some parts are really hard to see so i've got it as close as i could.
2nd part ....well that was really easy,cut audio too match,shrinked to match video runtime and then it just needed one cut :D

Now for the video ....well tweaked the 1st part the best i could,balancing out the brightness,contrast,colours aswell as adding
some sharpness.Part2 now this was more tricky as there was alot of camera movement from left to right and different amounts each time...
so had to cut the file into 8 parts and cut and clean each part on their own.
Now to get these to append together i needed to stick to one resize (AR) and went with 720 x 400 as it seemed the best option.

Finally once all done muxed all the cuts together and then removed some video on the join as there was an overlap and also cut some intro out
and about 5 secs several mins in where the cam was lost altogether.
Added two sample from the good and bad .....so please check first.
Screenies taken from the good and worse parts.....

SCREENIES:

image
image
image
image
image
image
image

Related Torrents

torrent name size files age seed leech

Sharing Widget


Download torrent
1.4 GB
seeders:1
leechers:0
Jack And Jill 2011 TS READNFO XViD - U.S.M

Trackers

tracker name Status checked seeders leechers downloads
http://tracker.torrentbay.to:6969/announce
outdated 02 Dec 2012 - - -
http://tracker.openbittorrent.com/announce
outdated 28 Nov 2011 - - -
udp://tracker.publicbt.com:80/announce
outdated 28 Nov 2011 - - -
udp://tracker.openbittorrent.com:80/announce
outdated 28 Nov 2011 - - -
http://tracker.publicbt.com/announce
deleted 28 Nov 2011 - - -
ĀµTorrent compatible trackers list

Locations

name
ThePirateBay
Limetorrents
Torrent hash: f5006c062f17a243d85e864cf9d1080512169908

All Comments

audio
0/10
video
0/10
please, leave only comments related to that torrent
or sign-in

User Opinions

Report a bug