Ishq (1997) DvDRip x264 E Subs - AxN - Team DhRz

seeders: 19
leechers: 13
Added on Dec 13, 2010 in Movies
Torrent verified. Downloaded 1,370 times.

Available in versions: DVDRip
Ishq (1997) DvDRip x264 E Subs - AxN - Team DhRz (Size: 893.5 MB)
  Ishq (1997) DvDRip x264 E Subs - AxN - Team DhRz.mp4 893.38 MB
  Ishq (1997) DvDRip x264 E Subs - AxN - Team DhRz.srt 122.91 KB

Description

Category: Movies

Seeds: 2
Leechers: 3
Size: 893.5 MB

More @ Limetorrents.com

Related Torrents

torrent name size files age seed leech

Sharing Widget


Download torrent
893.5 MB
seeders:19
leechers:13
Ishq (1997) DvDRip x264 E Subs - AxN - Team DhRz

Trackers

tracker name Status checked seeders leechers downloads
udp://tracker.openbittorrent.com:80/announce
active 21 Apr 2014 16 9 10
udp://tracker.publicbt.com:80/announce
active 21 Apr 2014 7 10 10
udp://tracker.istole.it:80/announce
active 21 Apr 2014 14 12 10
http://tracker.ex.ua/announce
active 21 Apr 2014 19 13 1370
http://11.rarbg.com/announce
private 06 Sep 2013 - - -
http://bt1.the9.com:6969/announce
outdated 06 Sep 2013 - - -
udp://tracker.ccc.de:80/announce
outdated 06 Sep 2013 - - -
http://genesis.1337x.org:1337/announce
outdated 06 Sep 2013 - - -
udp://fr33domtracker.h33t.com:3310/announce
deleted 06 Sep 2013 - - -
http://tracker.torrent-downloads.to:5869/announce
error 07 Dec 2012 - - -
ĀµTorrent compatible trackers list

Locations

name author
Limetorrents
1337x
Limetorrents
ExtraTorrent
Torrent hash: 7fdd33356e7cb52631ff02a04dc657e62799376a

All Comments

audio
9/10
video
8/10
please, leave only comments related to that torrent
or sign-in
0
kingkhanking10 • 22 March 2014, 04:45 Show comment
audio: 10video: 10
i seeded good movi beter print i liket
0
Muzaddad_olee2224 • 19 February 2014, 09:15
torrent downloaded
Show comment
Great Share I hope I like this movie .... smilesmilesmilesmile[:Qsmile thanks again
0
alviz1635 • 16 September 2013, 11:59
torrent downloaded
Show comment
audio: 9video: 9
Good...
0
madmax0071306 • 20 February 2013, 17:16
torrent downloaded
Show comment
audio: 8video: 9
Thanx!!!
0
anonymous • 16 August 2012, 08:23 Show comment
need seed T.T
0
vinay18781081 • 15 June 2012, 09:53
torrent downloaded
Show comment
audio: 8video: 7
thanks.
0
dchhag100 • 16 May 2012, 17:58
torrent downloaded
Show comment
audio: 10video: 10
Thanks
0
Shah_Jahan13 • 28 March 2012, 18:24
torrent downloaded
Show comment
audio: 7video: 6
For a size of 893 MB the quality and color of the print was not too good.
V=6/10
A=7/10
Here's some more info on the rip in case you need it,
General
Complete name : D:Ishq (1997) DvDRip x264 E Subs - AxN - Team DhRzIshq (1997) DvDRip x264 E Subs - AxN - Team DhRz.mp4
Format : MPEG-4
Format profile : Base Media
Codec ID : isom
File size : 893 MiB
Duration : 2h 49mn
Overall bit rate mode : Variable
Overall bit rate : 737 Kbps
Encoded date : UTC 2010-12-12 02:27:21
Tagged date : UTC 2010-12-12 02:27:21
Video
ID : 1
Format : AVC
Format/Info : Advanced Video Codec
Format profile : High@L2.1
Format settings, CABAC : Yes
Format settings, ReFrames : 4 frames
Codec ID : avc1
Codec ID/Info : Advanced Video Coding
Duration : 2h 49mn
Bit rate : 638 Kbps
Maximum bit rate : 2 797 Kbps
Width : 640 pixels
Height : 304 pixels
Display aspect ratio : 2.2:1
Frame rate mode : Constant
Frame rate : 23.976 fps
Color space : YUV
Chroma subsampling : 4:2:0
Bit depth : 8 bits
Scan type : Progressive
Bits/(Pixel*Frame) : 0.137
Stream size : 773 MiB (87%)
Title : Imported with GPAC 0.4.6-DEV (internal rev. 5)
Writing library : x264 core 98 r1649 c54c47d
Encoding settings : cabac=1 / ref=3 / deblock=1:0:0 / analyse=0x3:0x113 / me=hex / subme=7 / psy=1 / psy_rd=1.00:0.00 / mixed_ref=1 / me_range=16 / chroma_me=1 / trellis=1 / 8x8dct=1 / cqm=0 / deadzone=21,11 / fast_pskip=1 / chroma_qp_offset=-2 / threads=3 / sliced_threads=0 / nr=0 / decimate=1 / interlaced=0 / constrained_intra=0 / bframes=3 / b_pyramid=2 / b_adapt=1 / b_bias=0 / direct=1 / weightb=1 / weightp=2 / keyint=250 / keyint_min=25 / scenecut=40 / intra_refresh=0 / rc_lookahead=40 / rc=2pass / mbtree=1 / bitrate=638 / ratetol=1.0 / qcomp=0.60 / qpmin=10 / qpmax=51 / qpstep=4 / cplxblur=20.0 / qblur=0.5 / ip_ratio=1.40 / aq=1:1.00
Encoded date : UTC 2010-12-12 02:27:21
Tagged date : UTC 2010-12-12 02:28:47
Audio
ID : 2
Format : AAC
Format/Info : Advanced Audio Codec
Format profile : HE-AAC / LC
Codec ID : 40
Duration : 2h 49mn
Bit rate mode : Variable
Bit rate : 96.0 Kbps
Maximum bit rate : 109 Kbps
Channel(s) : 6 channels
Channel positions : Front: L C R, Side: L R, LFE
Sampling rate : 48.0 KHz / 24.0 KHz
Compression mode : Lossy
Stream size : 116 MiB (13%)
Encoded date : UTC 2010-12-12 02:28:37
Tagged date : UTC 2010-12-12 02:28:47
0
anonymous • 14 July 2012, 07:20 Show comment
thanks...
0
salamru737 • 19 February 2012, 17:05
torrent downloaded
Show comment
audio: 9video: 9
Show More

User Opinions

4.8.15.1623426552, slaywee2149, jai071167, riisan989, sujanshetty416, Roscolnikof412, preet001288, abmateen71107, mass5540, alikehk20 ... And 38 more
Denver2496137
Report a bug