Iron Man Duology 720p BRRip [Dual Audio] [Eng-Hin].sbaz44

seeders: 0
leechers: 4
Added on Apr 22, 2012 by sbaz44329 in Movies > Dubbed Movies
Downloaded 0 times.

Iron Man Duology 720p BRRip [Dual Audio] [Eng-Hin].sbaz44 (Size: 1.53 GB)
  ~SAMPLE~
  Iron Man 2 (2010) 720p BRRip [Dual Audio] [Eng-Hin].sbaz44[fokatworld.com].mkv 807.71 MB
  Iron Man (2008) 720p BRRip [Dual Audio] [Eng-Hin].sbaz44[fokatworld.com].mkv 749.41 MB
  JOIN ME ON FACEBOOK.txt 703 bytes

Description

Hey GUYS.....
IRON MAN 1:-
General
Complete name : E:Iron Man DuologyIron ManIron Man (2008) 720p BRRip [Dual Audio].sbaz44[fokatworld.com].mkv
Format : Matroska
File size : 749 MiB
Duration : 2h 6mn
Overall bit rate mode : Variable
Overall bit rate : 831 Kbps
Movie name : Iron Man (2008) 720p Bluray [Dual Audio].sbaz44[fokatworld.com]
Video
ID : 3
Format : AVC
Format/Info : Advanced Video Codec
Codec ID : V_MPEG4/ISO/AVC
Duration : 2h 6mn
Bit rate : 574 Kbps
Width : 1 280 pixels
Height : 534 pixels
Display aspect ratio : 2.40:1
Frame rate : 23.976 fps
Color space : YUV
Bit depth : 8 bits
Title : sbaz44[fokatworld.com]
Audio #1
ID : 1
Format : MPEG Audio
Codec ID : A_MPEG/L3
Bit rate mode : Variable
Bit rate : 128 Kbps
Channel(s) : 2 channels
Sampling rate : 48.0 KHz
Compression mode : Lossy
Stream size : 115 MiB (15%)
Title : sbaz44[fokatworld.com]
Language : English
Audio #2
ID : 2
Format : MPEG Audio
Bit rate mode : Constant
Bit rate : 128 Kbps
Channel(s) : 2 channels
Sampling rate : 48.0 KHz
Compression mode : Lossy
Stream size : 115 MiB (15%)
Title : sbaz44[fokatworld.com]
Language : Hindi
IRON MAN 2:-
General
Complete name : E:Iron Man DuologyIron Man Duology 720p BRRip [Dual Audio] [Eng-Hin].sbaz44Iron Man 2 (2010) 720p BRRip [Dual Audio] [Eng-Hin].sbaz44[fokatworld.com].mkv
Format : Matroska
File size : 808 MiB
Duration : 1h 59mn
Overall bit rate mode : Variable
Overall bit rate : 947 Kbps
Movie name : Iron Man 2 (2010) 720p BRRip [Dual Audio].sbaz44[fokatworld.com]
Video
ID : 1
Format : AVC
Format/Info : Advanced Video Codec
Nominal bit rate : 781 Kbps
Width : 1 280 pixels
Height : 544 pixels
Display aspect ratio : 2.35:1
Frame rate : 23.976 fps
Color space : YUV
Bit depth : 8 bits
Title : sbaz44[fokatworld.com]
Audio #1
ID : 2
Format : AAC
Format/Info : Advanced Audio Codec
Codec ID : A_AAC
Duration : 1h 59mn
Channel(s) : 2 channels
Channel positions : Front: L R
Sampling rate : 48.0 KHz / 24.0 KHz
Compression mode : Lossy
Title : sbaz44[fokatworld.com]
Language : English
Audio #2
ID : 3
Format : MPEG Audio
Bit rate mode : Variable
Bit rate : 128 Kbps
Channel(s) : 2 channels
Sampling rate : 48.0 KHz
Compression mode : Lossy
Stream size : 109 MiB (14%)
Title : sbaz44[fokatworld.com]
Language : Hindi
JOIN ME ON FACEBOOK FOR LATEST UPDATE AND TO FULLFILL YOUR REQUEST :-JOIN ME

Related Torrents

torrent name size files age seed leech

Sharing Widget


Download torrent
1.53 GB
seeders:0
leechers:4
Iron Man Duology 720p BRRip [Dual Audio] [Eng-Hin].sbaz44

Trackers

tracker name Status checked seeders leechers downloads
udp://tracker.openbittorrent.com:80/announce
outdated 27 Jan 2014 - - -
udp://tracker.istole.it:80/announce
outdated 27 Jan 2014 - - -
udp://tracker.publicbt.com:80/announce
outdated 27 Jan 2014 - - -
udp://tracker.1337x.org:80/announce
outdated 27 Jan 2014 - - -
http://exodus.desync.com:6969/announce
blocked 27 Jan 2014 - - -
udp://tracker.ccc.de:80/announce
deleted 27 Jan 2014 - - -
udp://fr33domtracker.h33t.com:3310/announce
deleted 27 Jan 2014 - - -
ĀµTorrent compatible trackers list

Locations

name
KickassTorrents
Torrent hash: BC242EB8D2A46B3EF73DB61D29D718330A79386C

All Comments

audio
8/10
video
9/10
please, leave only comments related to that torrent
or sign-in
0
anonymous • 22 September 2012, 06:21 Show comment
audio: 6video: 9
part 1 is good but in part 2 audio is bad
0
Saaduist14 • 12 June 2012, 17:57
torrent downloaded
Show comment
audio: 10video: 10
Nice Result...............

User Opinions

Report a bug