Iron Man 3 2013 R6 LiNE READNFO XViD - JUSTiCE

seeders: 162
leechers: 11
Added on May 12, 2013 by UsaBit174477 in Movies
Torrent verified. Downloaded 1,510 times.

Iron Man 3 2013 R6 LiNE READNFO XViD - JUSTiCE (Size: 1.86 GB)
  sample.avi 15.01 MB
  Usabit.com.txt 0 bytes
  Iron Man 3 Post Credits Scene.mp4 93.41 MB
  Iron Man 3 2013 R6 LiNE READNFO XViD - JUSTiCE.nfo 3.11 KB
  Iron Man 3 2013 R6 LiNE READNFO XViD - JUSTiCE.avi 1.75 GB

Description

image

Iron Man 3 2013 R6 LiNE READNFO XViD - JUSTiCE



SOURCE : VIDEO - R6
AUDIO - UNiQUE


Video and audio both cleaned and given justice.
Check sample and see.....


Ok same video as our v2 cam release ....however this time i have syncd the line audio off
unique's release to our video.
They used the other video that was nice and had no watermarks ...but have HC subs.So thought doing
this,this way gives you another option.
Also have cleaned the audio up in adobe,changing the eq bands aswell as using a light hiss filter.
Will say there is parts where theres some static that comes and goes and whilst i've toned it down
it was impossible to remove without wrecking the audio so ....

http://www.imdb.com/title/tt1300854/

Video
ID : 0
Format : MPEG-4 Visual
Format profile : Advanced Simple@L5
Format settings, BVOP : 2
Format settings, QPel : No
Format settings, GMC : No warppoints
Format settings, Matrix : Default (MPEG)
Muxing mode : Packed bitstream
Codec ID : XVID
Codec ID/Hint : XviD
Duration : 2h 8mn
Bit rate : 1 810 Kbps
Width : 720 pixels
Height : 304 pixels
Display aspect ratio : 2.35:1
Frame rate : 29.970 fps
Color space : YUV
Chroma subsampling : 4:2:0
Bit depth : 8 bits
Scan type : Progressive
Compression mode : Lossy
Bits/(Pixel*Frame) : 0.276
Stream size : 1.63 GiB (93%)
Writing library : XviD 64

Audio
ID : 1
Format : MPEG Audio
Format version : Version 1
Format profile : Layer 3
Mode : Joint stereo
Mode extension : MS Stereo
Codec ID : 55
Codec ID/Hint : MP3
Duration : 2h 8mn
Bit rate mode : Constant
Bit rate : 128 Kbps
Channel(s) : 2 channels
Sampling rate : 48.0 KHz
Compression mode : Lossy
Delay relative to video : 10ms
Stream size : 118 MiB (7%)
Alignment : Split accross interleaves
Interleave, duration : 33 ms (1.00 video frame)
Interleave, preload duration : 500 ms



Oh added bonus ...THE after end credit scene is also inc :)
Sorry about the file missing on some site on our v2 release ...for some reason it
wasn't inc on all the sites it was upped to.


image image image image image image image
Free Image Hosting by imgbox.com

Related Torrents

torrent name size files age seed leech

Sharing Widget


Download torrent
1.86 GB
seeders:162
leechers:11
Iron Man 3 2013 R6 LiNE READNFO XViD - JUSTiCE

Trackers

tracker name Status checked seeders leechers downloads
udp://tracker.openbittorrent.com:80/announce
outdated 25 Mar 2014 - - -
udp://tracker.publicbt.com:80/announce
outdated 25 Mar 2014 - - -
udp://tracker.istole.it:80/announce
outdated 21 Sep 2013 - - -
http://p2pdl.com:2710/announce
deleted 21 Sep 2013 - - -
udp://fr33domtracker.h33t.com:3310/announce
deleted 21 Sep 2013 - - -
http://www.elitezones.ro/announce.php?passkey=759b06cdeda5466eea0cade5f98369a2
pending 25 Mar 2014 3 0 0
udp://retracker.hotplug.ru:2710/announce
pending 25 Mar 2014 16 5 1510
udp://p2pdl.com:2710/announce
pending 21 Sep 2013 108 19 233
http://retracker.hotplug.ru:2710/announce
pending 21 Sep 2013 72 11 5966
udp://www.elitezones.ro:80/announce.php?passkey=759b06cdeda5466eea0cade5f98369a2
pending 21 Sep 2013 0 0 0
µTorrent compatible trackers list

Locations

name
KickassTorrents
Torrent hash: AFEF20C000435F8AE8801C04AAB3EA87E37C142B

Top Comments

33
SilentWarrior8167 • 13 May 2013, 05:09
audio: 6video: 8
Video is near flawless. slightly darker than in the theater but you wont really notice it. no hc subs except when it translates a sign or note from the movie which is brief. the sound has hisses and pops with rhythm like digital interference throughout the movie but overall doesnt take away attention from the clear audio. great release.
20
k00zy199 • 13 May 2013, 04:02
audio: 8video: 10
Whoa!! Awesome video. The sound hiss and pops once in awhile but still almost dvd!

All Comments

audio
6/10
video
7/10
please, leave only comments related to that torrent
or sign-in
0
MannuYadav82065 • 25 March 2014, 11:49
torrent downloaded
Show comment
audio: 7video: 10
0
KarmaComa1791 • 17 January 2014, 17:48 Show comment
audio: 6video: 8
0
toxxico3942 • 15 October 2013, 01:17
torrent downloaded
Show comment
audio: 8video: 8
thanx
0
anonymous • 17 August 2013, 03:49 Show comment
audio: 8video: 6
Its not bad. BUT Subtitles are not at all synced properly. Please fix.
0
aissak171924 • 14 August 2013, 10:23
torrent downloaded
Show comment
THANK U FOR UP
Show More

User Opinions

Naskal3665, Diamond Dave1931, Siimple1778, ToxicSoldier1289, mufistiko763, pankthesnake691, filefighter435, redrabbit216, M@rtin204, converse69131 ... And 1245 more
electsub2158, Sahir94919722, hughall629, requiembey334, nathan_charles195, ivram125, JuniorrrrXD112, sportsman48, timpas19, thunderkat6 ... And 112 more
Report a bug