IQ 1994

seeders: 3
leechers: 0
Added on May 22, 2010 in Movies
Torrent verified. Downloaded 10 times.

  • Movie: I.Q.
  • IMDB link: 0110099
  • Detected quality: Unknown
  • IMDB rating: 6.0 (11,169 votes)
  • RottenTomatoes: 46% 48%
  • Genres: Romance, Comedy
Available in versions: 720pDVDRip
IQ 1994 (Size: 465.22 MB)
  IQ 1994.avi 465.22 MB
  IQ 1994.txt 2.05 KB

Description


Edward Walters, an auto mechanic, falls for the intelligent and beautiful Catherine Boyd. It is love at first sight. There is however a problem, she's engaged to jerk James Moreland. Fortunately, Catherine's uncle likes Ed, and with his friends they scheme to make Catherine fall for Ed. The comedy in this movie stems from the fact that Catherine's uncle is none other than Albert Einstein, who's portrayed as a fun loving genius, as are his mischievous colleagues, Nathan, Kurt and Boris.





Format : AVI

Format/Info : Audio Video Interleave

File size : 465 MiB

Duration : 1h 31mn

Overall bit rate : 708 Kbps

Writing application : MEncoder SVN-r29352(20090610-gcc4.3.3)

Writing library : MPlayer



Video

Format : avc1

Codec ID : avc1

Duration : 1h 31mn

Bit rate : 568 Kbps

Width : 480 pixels

Height : 360 pixels

Display aspect ratio : 4:3

Frame rate : 25.000 fps

Bits/(Pixel*Frame) : 0.131

Stream size : 373 MiB (80%)



Audio

ID : 1

Format : MPEG Audio

Format version : Version 1

Format profile : Layer 3

Mode : Joint stereo

Format_Settings_ModeExtension : MS Stereo

Codec ID : 55

Codec ID/Hint : MP3

Duration : 1h 31mn

Bit rate mode : Constant

Bit rate : 128 Kbps

Channel(s) : 2 channels

Sampling rate : 44.1 KHz

Stream size : 84.1 MiB (18%)

Alignment : Aligned on interleaves

Interleave, duration : 26 ms (0.65 video frame)

Interleave, preload duration : 522 ms






Sharing Widget


Download torrent
465.22 MB
seeders:3
leechers:0
IQ 1994

Trackers

tracker name Status checked seeders leechers downloads
http://tracker.ex.ua/announce
active 13 Apr 2014 1 0 0
udp://tracker.openbittorrent.com:80/announce
active 13 Apr 2014 3 0 10
udp://tracker.publicbt.com:80/announce
active 13 Apr 2014 3 0 10
http://genesis.1337x.org:1337/announce
outdated 23 May 2013 - - -
http://nemesis.1337x.org/announce
outdated 23 May 2013 - - -
http://tracker.xpear.de:6969/announce
outdated 23 May 2013 - - -
http://11.rarbg.com/announce
private 23 May 2013 - - -
http://tracker.openbittorrent.com/announce
outdated 23 May 2013 - - -
http://10.rarbg.com/announce
private 23 May 2013 - - -
http://pow7.com/announce
outdated 23 May 2013 - - -
http://tracker.torrentbay.to:6969/announce
outdated 23 May 2013 - - -
http://tracker.ilibr.org:6969/announce
blocked 02 Aug 2011 - - -
http://tracker.publicbt.com/announce
deleted 23 May 2013 - - -
http://fr33dom.h33t.com:3310/announce
deleted 23 May 2013 - - -
http://www.zen7.ph/track_1/announce.php
error 27 May 2010 - - -
http://tracker.bitreactor.to:2710/announce
private 27 May 2010 - - -
http://9.rarbg.com:2710/announce
private 27 May 2010 - - -
http://www.zen7.ph/track/announce.php
error 27 May 2010 - - -
ĀµTorrent compatible trackers list

Locations

name author
1337x
Torrent hash: fe1c5d63e3c25662822706a94b353f5bc9e0bc3c

All Comments

audio
7/10
video
6/10
please, leave only comments related to that torrent
or sign-in
0
chandroth1121 • 11 September 2013, 09:49
torrent downloaded
Show comment
audio: 6video: 6
Thanks
0
Itzy15087 • 28 August 2013, 18:11
torrent downloaded
Show comment
audio: 9video: 7
480*360. OK rip. Very odd resolution. Other rips out there are 4 minutes longer. Good audio.
0
anonymous • 20 January 2013, 03:35 Show comment
I'm having a problem, when i download it, I open the file and play the .avi but when it plays, it just plays the audio of the movie.
0
Itzy15087 • 28 August 2013, 18:09
torrent downloaded
Show comment
Use VLC.
1
alp.kisikli141 • 30 June 2012, 08:40
torrent downloaded
Show comment
audio: 7video: 7
a,v: 7/10 ..m:9/10
thx for the nice torrent^_^

User Opinions

Report a bug