Indictment The McMartin Trial (1995) Dvdrip Xvid-123mark avi

seeders: 2
leechers: 1
Added on Jan 26, 2013 by 123mark619 in Movies
Downloaded 10 times.

Indictment The McMartin Trial (1995) Dvdrip Xvid-123mark avi (Size: 1.23 GB)
  Indictment.The.McMartin.Trial.(1995).Dvdrip.Xvid-123mark.avi 1.23 GB

Description

image




http://www.imdb.com/title/tt0113421/



Storyline
The McMartin family's lives are turned upside down when they are accused of serious child molestation. The family run a school for infants. An unqualified child cruilty "expert" videotapes the children describing outrageous stories of abuse. One of the most expensive and long running trails in US legal history, exposes the lack of evidence and unprofessional attitudes of the finger pointers which kept one of the accused in jail for over 5 years without




Format : AVI
Format/Info : Audio Video Interleave
File size : 1.23 GiB
Duration : 2h 11mn
Overall bit rate : 1 340 Kbps

Video
ID : 0
Format : MPEG-4 Visual
Format profile : Advanced Simple@L4
Format settings, BVOP : No
Format settings, QPel : No
Format settings, GMC : No warppoints
Format settings, Matrix : Default (H.263)
Codec ID : XVID
Codec ID/Hint : XviD
Duration : 2h 11mn
Bit rate : 1 199 Kbps
Width : 640 pixels
Height : 480 pixels
Display aspect ratio : 4:3
Frame rate : 29.970 fps
Color space : YUV
Chroma subsampling : 4:2:0
Bit depth : 8 bits
Scan type : Progressive
Compression mode : Lossy
Bits/(Pixel*Frame) : 0.130
Stream size : 1.10 GiB (89%)
Writing library : Magic0432

Audio
ID : 1
Format : MPEG Audio
Format version : Version 1
Format profile : Layer 3
Mode : Joint stereo
Codec ID : 55
Codec ID/Hint : MP3
Duration : 2h 11mn
Bit rate mode : Constant
Bit rate : 128 Kbps
Channel(s) : 2 channels
Sampling rate : 44.1 KHz
Compression mode : Lossy
Stream size : 121 MiB (10%)
Alignment : Aligned on interleaves
Interleave, duration : 26 ms (0.78 video frame)
Writing library : LAME3.97





Please Seed Cheers 123mark

Sharing Widget


Download torrent
1.23 GB
seeders:2
leechers:1
Indictment The McMartin Trial (1995) Dvdrip Xvid-123mark avi

Trackers

tracker name Status checked seeders leechers downloads
udp://tracker.openbittorrent.com:80/announce
outdated 25 Dec 2013 - - -
udp://tracker.publicbt.com:80/announce
outdated 25 Dec 2013 - - -
udp://tracker.istole.it:80/announce
outdated 01 Aug 2013 - - -
udp://fr33domtracker.h33t.com:3310/announce
deleted 01 Aug 2013 - - -
udp://tracker.ccc.de:80/announce
deleted 01 Aug 2013 - - -
ĀµTorrent compatible trackers list

Locations

name
KickassTorrents
Torrent hash: 6071EBE184C508C933D40CC793EBE687E74343F6

All Comments

audio
6/10
video
6/10
please, leave only comments related to that torrent
or sign-in
1
Becsmom1911 • 05 July 2014, 15:44
torrent downloaded
Show comment
thanks, been wanting to see this one again
1
OhDearieMe248 • 11 August 2013, 05:09
torrent downloaded
Show comment
audio: 8video: 7
Good quality rip
0
whohot161 • 15 March 2013, 01:47
torrent downloaded
Show comment
audio: 5video: 5

User Opinions

Report a bug