Advertising (remove)

Indian Couple Homemade Sex video

seeders: 3
leechers: 0
Added on Apr 14, 2012 by PornwarrioR10.75K in XXX > Video
Torrent verified. Downloaded 80 times.

Indian Couple Homemade Sex video (Size: 52.39 MB)
  Indian Couple Homemade Sex Video.avi 52.26 MB
  Indian Couple Homemade Sex Video.jpg 136.8 KB
  www.digtorrent.org.txt 79 bytes
Advertising (remove)

Description

General
Complete name : Indian Couple Homemade Sex video.avi
Format : AVI
Format/Info : Audio Video Interleave
File size : 52.3 MiB
Duration : 8mn 23s
Overall bit rate : 870 Kbps
Movie name : Indian Couple Sex Homevideo
Writing application : Lavf52.93.0
Video
ID : 0
Format : MPEG-4 Visual
Format profile : Simple@L1
Format settings, BVOP : No
Format settings, QPel : No
Format settings, GMC : No warppoints
Format settings, Matrix : Default (H.263)
Codec ID : FMP4
Duration : 8mn 23s
Bit rate : 733 Kbps
Width : 480 pixels
Height : 360 pixels
Display aspect ratio : 4:3
Frame rate : 29.970 fps
Color space : YUV
Chroma subsampling : 4:2:0
Bit depth : 8 bits
Scan type : Progressive
Bits/(Pixel*Frame) : 0.141
Stream size : 44.0 MiB (84%)
Writing library : Lavc52.108.0
Audio
ID : 1
Format : MPEG Audio
Format version : Version 2
Format profile : Layer 2
Codec ID : 50
Duration : 8mn 23s
Bit rate mode : Constant
Bit rate : 128 Kbps
Channel(s) : 1 channel
Sampling rate : 22.05 KHz
Stream size : 7.69 MiB (15%)
Alignment : Aligned on interleaves
Interleave, duration : 52 ms (1.57 video frames)

Related Torrents

torrent name size files age seed leech

Sharing Widget


Download torrent
52.39 MB
seeders:3
leechers:0
Indian Couple Homemade Sex video

Trackers

tracker name Status checked seeders leechers downloads
udp://tracker.1337x.org:80/announce
outdated 14 Apr 2012 - - -
udp://tracker.istole.it:80/announce
outdated 14 Apr 2012 - - -
udp://tracker.openbittorrent.com:80/announce
outdated 14 Apr 2012 - - -
udp://tracker.publicbt.com:80/announce
outdated 14 Apr 2012 - - -
http://exodus.desync.com:6969/announce
blocked 23 Aug 2012 - - -
http://fr33dom.h33t.com:3310/announce
deleted 20 May 2013 - - -
http://tracker.publicbt.com/announce
deleted 11 Mar 2013 - - -
http://tracker.coppersurfer.tk:6969/announce
deleted 14 Apr 2012 - - -
http://tracker.tfile.me/announce
deleted 14 Apr 2012 - - -
ĀµTorrent compatible trackers list

Locations

name
KickassTorrents
Torrent hash: 4F783DA0AAB6C308DB178D3F02E8230B2B1F3953

All Comments

audio
0/10
video
0/10
please, leave only comments related to that torrent
or sign-in

User Opinions

RockNR0ll46642, ramacole3316
Report a bug