Indecent Proposal 1993 1080p BluRay H264

seeders: 5
leechers: 1
Added on Feb 7, 2011 in Movies
Torrent verified. Downloaded 10 times.

Available in versions: 1080p720pBlu-RayHDRiPDVDRip
Indecent Proposal 1993 1080p BluRay H264 (Size: 3.73 GB)
  Indecent Proposal 1993 1080p BluRay H264.mp4 3.73 GB
  Indecent Proposal 1993 1080p BluRay H264.srt 76.31 KB
  Downmixing Tutorial.txt 2.26 KB

Description


image

File Name

Indecent Proposal 1993 1080p BluRay H264.mp4

File Size

Format : MPEG-4

Format profile : Base Media

Codec ID : isom

File size : 3.73 GiB

Duration : 1h 56mn

Overall bit rate : 4 566 Kbps

Video

ID : 1

Format : AVC

Format/Info : Advanced Video Codec

Format profile : High@L4.1

Format settings, CABAC : Yes

Format settings, ReFrames : 3 frames

Codec ID : avc1

Codec ID/Info : Advanced Video Coding

Duration : 1h 56mn

Bit rate mode : Variable

Bit rate : 3 927 Kbps

Nominal bit rate : 3 949 Kbps

Maximum bit rate : 23.2 Mbps

Width : 1 920 pixels

Height : 1 080 pixels

Display aspect ratio : 16:9

Frame rate mode : Constant

Frame rate : 23.976 fps

Resolution : 24 bits

Colorimetry : 4:2:0

Scan type : Progressive

Bits/(Pixel*Frame) : 0.079

Stream size : 3.21 GiB (86%)

Audio #1

ID : 2

Format : AAC

Format/Info : Advanced Audio Codec

Format version : Version 4

Format profile : LC

Format settings, SBR : No

Codec ID : 40

Duration : 1h 56mn

Bit rate mode : Variable

Bit rate : 192 Kbps

Maximum bit rate : 251 Kbps

Channel(s) : 2 channels

Channel positions : L R

Sampling rate : 48.0 KHz

Resolution : 16 bits

Stream size : 163 MiB (4%)

Audio #2

ID : 3

Format : AAC

Format/Info : Advanced Audio Codec

Format version : Version 4

Format profile : LC

Format settings, SBR : No

Codec ID : 40

Duration : 1h 56mn

Bit rate mode : Variable

Bit rate : 439 Kbps

Maximum bit rate : 552 Kbps

Channel(s) : 6 channels

Channel positions : Front: L C R, Rear: L R, LFE

Sampling rate : 48.0 KHz

Resolution : 16 bits

Stream size : 367 MiB (10%)

English SRT : External

Language : English

Info Hash :

Tracker Info:





Release Date:7 April 1993 (USA)

Genre:Drama | Romance

Plot:A young couple very much in love are married and have started their respective careers, she as a real estate broker, he as an architect. She finds the perfect spot to build his dream house, and they get loans to finance it. When the recession hits, they stand to lose everything they own, so they go to Vegas to have one shot at winning the money they need. After losing at the tables, they are approached by a millionaire who offers them a million dollars for a night with the wife. Though the couple agrees that this is a way out of their financial dilemma, it threatens to destroy their relationship.

Cast:

Robert Redford ... John Gage

Demi Moore ... Diana Murphy

Woody Harrelson ... David Murphy

Seymour Cassel ... Mr. Shackleford

Oliver Platt ... Jeremy

Billy Bob Thornton ... Day Tripper

Rip Taylor ... Mr. Langford

Billy Connolly ... Auction M.C.

Joel Brooks ... Realtor

Pierre Epstein ... Van Buren

Danny Zorn ... Screenwriter

Kevin West ... Screenwriter

Pamela Holt ... David's Girlfriend

Tommy Bush ... David's Father

Mariclare Costello ... David's Mother



Screenshots

image

image

image

image



image


Related Torrents

torrent name size files age seed leech

Sharing Widget


Download torrent
3.73 GB
seeders:5
leechers:1
Indecent Proposal 1993 1080p BluRay H264

Trackers

tracker name Status checked seeders leechers downloads
udp://tracker.publicbt.com:80/announce
active 28 Aug 2014 5 1 10
udp://tracker.openbittorrent.com:80/announce
active 28 Aug 2014 2 1 10
http://exodus.1337x.org/announce
outdated 28 Sep 2013 - - -
http://genesis.1337x.org:1337/announce
outdated 28 Sep 2013 - - -
http://tracker.openbittorrent.com/announce
outdated 28 Sep 2013 - - -
http://tracker.publicbt.com/announce
deleted 28 Sep 2013 - - -
µTorrent compatible trackers list

Locations

name
1337x
ExtraTorrent
Torrent hash: 50f6c835167df6335bb059d76c03b51baa10766f

All Comments

audio
9/10
video
9/10
please, leave only comments related to that torrent
or sign-in
0
buffalo981172 • 16 February 2014, 15:59
torrent downloaded
Show comment
audio: 10video: 10
Thanks
0
cutjthientaj551 • 21 April 2012, 12:57
torrent downloaded
Show comment
audio: 8video: 8
slow , but very good movie , good quality .
0
yadavms31 • 15 March 2011, 11:21 Show comment
I agree with u linzi.. I wasted a day to download and I m really disappointed.
0
linziyabamsx247 • 14 March 2011, 22:58
torrent downloaded
Show comment
Meh, really jumpy and slow....

User Opinions

Report a bug