In.Time.2011.720p.BRRip.x264.Feel-Free

seeders: 4
leechers: 2
Added on Jan 21, 2012 by feel-free20.06K in Movies > Highres Movies
Torrent verified. Downloaded 8,173 times.

In.Time.2011.720p.BRRip.x264.Feel-Free (Size: 2.6 GB)
  4F3D_4F17BD2E.jpg 112.85 KB
  In.Time.2011.720p.BRRip.x264.Feel-Free.mp4 2.59 GB
  In.Time.2011.720p.BRRip.x264.Feel-Free.nfo 3.5 KB
  Torrent downloaded from extratorrent.com.txt 171 bytes
  vlcsnap-2012-01-21-08h32m48s198.png 1.18 MB
  vlcsnap-2012-01-21-08h33m13s227.png 980.85 KB
  vlcsnap-2012-01-21-08h33m35s211.png 831.12 KB
  vlcsnap-2012-01-21-08h34m20s0.png 1 MB
  vlcsnap-2012-01-21-08h34m36s46.png 788.65 KB
  vlcsnap-2012-01-21-08h36m40s9.png 842.48 KB

Description

image


Genre:Crime | Sci-Fi | Thriller
Language:English
IMDb:http://www.imdb.com/title/tt1637688/
Source:1080p.Bluray.x264.DTS-HDChina Thanks!
Encoder:Tony

Format : MPEG-4
Format profile : Base Media
Codec ID : isom
File size : 2.59 GiB
Duration : 1h 49mn
Overall bit rate mode : Variable
Overall bit rate : 3 397 Kbps

Video
ID : 1
Format : AVC
Format/Info : Advanced Video Codec
Format profile : High@L5.1
Format settings, CABAC : Yes
Format settings, ReFrames : 8 frames
Codec ID : avc1
Codec ID/Info : Advanced Video Coding
Duration : 1h 49mn
Bit rate : 3 000 Kbps
Maximum bit rate : 24.5 Mbps
Width : 1 280 pixels
Height : 544 pixels
Display aspect ratio : 2.35:1
Frame rate mode : Constant
Frame rate : 23.976 fps
Color space : YUV
Chroma subsampling : 4:2:0
Bit depth : 8 bits
Scan type : Progressive
Bits/(Pixel*Frame) : 0.180
Stream size : 2.25 GiB (87%)
Writing library : x264

Audio
ID : 2
Format : AAC
Format/Info : Advanced Audio Codec
Format profile : LC
Codec ID : 40
Duration : 1h 49mn
Bit rate mode : Variable
Bit rate : 443 Kbps
Maximum bit rate : 529 Kbps
Channel(s) : 6 channels
Channel positions : Front: L C R, Side: L R, LFE
Sampling rate : 48.0 KHz
Compression mode : Lossy
Stream size : 347 MiB (13%)


Plot:
In a future where people stop aging at 25, but are engineered to live only one more year, having the means to buy your way out of the situation is a shot at immortal youth. Here, Will Salas finds himself accused of murder and on the run with a hostage - a connection that becomes an important part of the way against the system

TRAILER:
[embed=youtube]http://www.youtube.com/watch?v=fdadZ_KrZVw&feature=player_embedded[/embed]

image
image
image
image
image
image

Greets:
CRYS,IMAGINE,LKRG,FXG,3Li,iLLUMiNATi,FLAWL3SS,TA,iLLUSiON,ViSiON,DTRG SAFCuk009,LU,TheFalcon007,MYSTiC,PrisM,Noir,WBZ,LAP,Rx,Kingdom,SAFCuk009+Fabreezy,HDLiTE,TWiZTED,ETRG.ELEKTRI4KA,MAGNAT,CM8
And to all the other p2p grps past and present




Make sure its a real Feel-Free release @ http://extratorrent.com

Thanks to all who promotes release Feel-Free !!!

Related Torrents

torrent name size files age seed leech

Sharing Widget


Download torrent
2.6 GB
seeders:4
leechers:2
In.Time.2011.720p.BRRip.x264.Feel-Free

Trackers

tracker name Status checked seeders leechers downloads
http://pow7.com/announce
outdated 23 Sep 2012 - - -
udp://tracker.openbittorrent.com:80/announce
outdated 23 Sep 2012 - - -
http://tracker.openbittorrent.com/announce
outdated 23 Sep 2012 - - -
http://tracker.istole.it/announce
outdated 23 Sep 2012 - - -
udp://tracker.publicbt.com:80/announce
outdated 23 Sep 2012 - - -
udp://tracker.istole.it:80/announce
outdated 23 Sep 2012 - - -
udp://tracker.1337x.org:80/announce
outdated 23 Sep 2012 - - -
http://10.rarbg.com/announce
private 23 Sep 2012 - - -
http://tracker.publicbt.com/announce
deleted 11 Mar 2013 - - -
http://tracker.novalayer.org:6969/announce
pending 23 Sep 2012 0 0 0
µTorrent compatible trackers list

Locations

name
KickassTorrents
ExtraTorrent
Limetorrents
Torrent hash: FAD88CE9F70C15759ADBAF0673DFF7A65AAB9119

All Comments

audio
9/10
video
9/10
please, leave only comments related to that torrent
or sign-in
0
KikisElrado186 • 04 September 2012, 15:32
torrent downloaded
Show comment
audio: 10video: 10
Excellent quality, thanks.
0
haffet09106 • 05 August 2012, 05:09
torrent downloaded
Show comment
audio: 9video: 9
Great!
0
nurain934 • 11 July 2012, 14:16
torrent downloaded
Show comment
audio: 10video: 10
Excellent quality
0
MARd.RId3511 • 20 April 2012, 15:53
torrent downloaded
Show comment
audio: 7video: 10
thanx
0
WhItE_BeArD12K • 24 March 2012, 17:39
torrent downloaded
Show comment
audio: 10video: 10
i saw it twice, but took weeks to download
0
thepyeman249 • 11 February 2012, 15:21
torrent downloaded
Show comment
must be me but could not get it down to download
0
prax83815 • 22 January 2012, 14:27
torrent downloaded
Show comment
audio: 10video: 10
Nice copy 10/10

User Opinions

MitGuNNeR30.71K, PRPatel2828, stoffle32721, Roadblock681, Aamand374, Takasi275, KikisElrado186, lurpasser97, Fabrimh81, Weednation1256 ... And 3 more
Report a bug