Immortals 2011 R5 XviD-PRESTiGE

seeders: 1
leechers: 0
Added on Jan 16, 2012 in Movies
Torrent verified. Downloaded 0 times.

Summary:
Theseus is a mortal man chosen by Zeus to lead the fight against the ruthless King Hyperion, who is on a rampage across Greece to obtain a weapon that can destroy humanity.
Submitted by ROBBREDD698608
report summary
Immortals 2011 R5 XviD-PRESTiGE (Size: 1.23 GB)
  prestige-immortals.2011.r5.nfo 4.46 KB
  prestige-immortals.2011.r5.xvid.avi 1.2 GB
  prestige-immortals.2011.r5.xvid.sfv 409 bytes
  Read this before playing this Video.txt 195 bytes
  sample.avi 24.76 MB
  Torrent have been downloaded from Scenetime.com.txt 195 bytes

Description

.

http://www.scenetime.com - Hottest private tracker on the net. !!!

New release on http://www.scenetime.com

Seed back for speed


...................................NFO:.................................................[pre]image

*******************************************************************************
Immortals.2011.R5.XviD-PRESTiGE
*******************************************************************************General Information:

Complete name : Immortals.2011.R5.XviD-PRESTiGE
Format : AVI
Format/Info : Audio Video Interleave
File size : 1.20 GiB
Duration : 1h 41mn
Overall bit rate : 1 705 Kbps
Subs : N/A
Source : DTRG Many THANKS
Encoder : akosipalos

iMDB: http://www.imdb.com/title/tt1253864/

Video

ID : 0
Format : MPEG-4 Visual
Format profile : Advanced Simple@L5
Format settings, BVOP : 2
Format settings, QPel : No
Format settings, GMC : No warppoints
Format settings, Matrix : Default (H.263)
Codec ID : XVID
Codec ID/Hint : XviD
Duration : 1h 41mn
Bit rate : 1 571 Kbps
Width : 672 pixels
Height : 368 pixels
Display aspect ratio : 16:9
Frame rate : 25.000 fps
Color space : YUV
Chroma subsampling : 4:2:0
Bit depth : 8 bits
Scan type : Progressive
Compression mode : Lossy
Bits/(Pixel*Frame) : 0.254
Stream size : 1.11 GiB (92%)
Writing library : XviD 1.2.1 (UTC 2008-12-04)

Audio

ID : 1
Format : MPEG Audio
Format version : Version 1
Format profile : Layer 3
Mode : Joint stereo
Mode extension : MS Stereo
Codec ID : 55
Codec ID/Hint : MP3
Duration : 1h 41mn
Bit rate mode : Constant
Bit rate : 128 Kbps
Channel(s) : 2 channels
Sampling rate : 48.0 KHz
Compression mode : Lossy
Stream size : 92.6 MiB (8%)
Alignment : Aligned on interleaves
Interleave, duration : 160 ms (4.00 video frames)
Interleave, preload duration : 216 ms
Writing library : LAME3.98rPlot:

Theseus is a mortal man chosen by Zeus to lead the fight against the ruthless King Hyperion,
who is on a rampage across Greece to obtain a weapon that can destroy humanity.

Screens:

image image image image image image Release Notes:

WE DONT RELEASE EVERYTHiNG TO OTHERS SiTES YOU WANT MORE OF OUR STUFF COME FiND US AT .......

WE ARE LOOKING FOR SUPPLiERS BLURAY, CAM, R5, PRE RETAiL DVD GOT SOMETHiNG WE MiGHT LiKE WHEN YOU FiND US TELL US.......
GREETZ:

Twisted | Bigguy | CTFX | Whitestag13 | THoRN | SANTi | PA4U2C | Jungledave | mtyy
| marsby | cld | Stortrapp | rizal | mannilim | Rock | Ulap | centserick2 |
musikera | Tukmol | rock3r | canislupus | sickie | fun2knytz | lilyrose
EXQUiSiTE | TRiNiTY | RiZAL Team RG | LEGiTiMATE | HiVE-CM8 | BHRG | DTRG
CrEwSaDe | Rx | LKRG | THC | aTLas

image

PRESTiGE is the level of respect at which one is regarded by others....RIzE Above Or Sink Below...
[/pre]

Related Torrents

torrent name size files age seed leech

Sharing Widget


Download torrent
1.23 GB
seeders:1
leechers:0
Immortals 2011 R5 XviD-PRESTiGE

Trackers

tracker name Status checked seeders leechers downloads
udp://tracker.publicbt.com:80/announce
outdated 16 Jan 2012 - - -
http://tracker.openbittorrent.com/announce
outdated 16 Jan 2012 - - -
udp://tracker.openbittorrent.com:80/announce
outdated 16 Jan 2012 - - -
http://tracker.publicbt.com/announce
deleted 11 Mar 2013 - - -
ĀµTorrent compatible trackers list

Locations

name
ThePirateBay
Torrent hash: c50c87bd8ce9b43d8f89b6d02c0b370ce734b139

All Comments

audio
0/10
video
0/10
please, leave only comments related to that torrent
or sign-in
Report a bug