Immortals (2011) DVDSCR x264-BBnRG

seeders: 0
leechers: 1
Added on Nov 26, 2011 in Movies
Torrent verified. Downloaded 0 times.

Summary:
Theseus is a mortal man chosen by Zeus to lead the fight against the ruthless King Hyperion, who is on a rampage across Greece to obtain a weapon that can destroy humanity.
Submitted by ROBBREDD698534
report summary
Immortals (2011) DVDSCR x264-BBnRG (Size: 706.2 MB)
  Screenshots + Cover
  BBnRG-NFO.nfo 18.58 KB
  iM-SAMPLE-BBnRG.mp4 5.61 MB
  Immortals (2011) DVDSCR x264-BBnRG.mp4 698.68 MB
  Immortals (2011) DVDSCR x264-BBnRG.srt 1.04 KB
  READ this before playing the Movie.txt 473 bytes
  www.Torrenting.com.txt 473 bytes

Description

.

http://www.torrenting.com : Once & For all ;)


www . Torrenting . Com

(((((((((((((= Enjoy No RAR releases =))))))))))))))))))))


...................................NFO:....................................

.

◘◘◘◘◘◘◘◘◘◘◘◘◘◘◘◘◘◘◘◘◘◘◘◘◘◘◘◘◘◘◘◘◘◘◘◘◘◘◘◘◘◘◘◘◘◘◘◘◘◘◘◘◘◘◘◘◘◘◘◘◘◘◘◘◘◘◘◘◘◘◘◘◘◘◘◘
◘◘◘◘◘◘◘◘◘◘◘◘◘◘◘◘◘◘◘◘◘◘◘◘◘◘◘◘◘◘◘◘◘◘◘◘◘◘◘◘◘◘◘◘◘◘◘◘◘◘◘◘◘◘◘◘◘◘◘◘◘◘◘◘◘◘◘◘◘◘◘◘◘◘◘◘
◘◘◘◘
◘◘◘◘
◘◘ ◘◘
◘◘ ◘◘
◘◘ ◘◘
◘◘ ◘◘
◘◘ ◘◘
◘◘ ◘◘
◘◘ ◘◘
◘◘ ◘◘
◘◘ ◘◘
◘◘ ◘◘
◘◘ ◘◘
◘◘ ◘◘
◘◘ ◘◘
◘◘ ◘◘
◘◘ ◘◘
◘◘ ◘◘
◘◘ Enjoy Another Fine BBnRG Release... ◘◘
◘◘ ◘◘
◘◘ /--------------------------------------------------------------\ ◘◘
◘◘ (◘◘◘◘◘◘◘◘◘◘◘◘◘◘ Immortals (2011) DVDSCR x264-BBnRG ◘◘◘◘◘◘◘◘◘◘◘◘◘◘) ◘◘
◘◘ \--------------------------------------------------------------/ ◘◘
◘◘ ◘◘
◘◘◘◘
◘◘◘◘
◘◘◘◘◘◘◘◘◘◘◘◘◘◘◘◘◘◘◘◘◘◘◘◘◘◘◘◘◘◘◘◘◘◘◘◘◘◘◘◘◘◘◘◘◘◘◘◘◘◘◘◘◘◘◘◘◘◘◘◘◘◘◘◘◘◘◘◘◘◘◘◘◘◘◘◘
◘◘◘◘◘◘◘◘◘◘◘◘◘◘◘◘◘◘◘◘◘◘◘◘◘◘◘◘◘◘◘◘◘◘◘◘◘◘◘◘◘◘◘◘◘◘◘◘◘◘◘◘◘◘◘◘◘◘◘◘◘◘◘◘◘◘◘◘◘◘◘◘◘◘◘◘
◘◘◘◘
◘◘◘◘
◘◘ ◘◘
◘◘ ◘◘
◘◘ ◘◘
◘◘ ◘◘
◘◘ ◘◘
◘◘ ◘◘
◘◘ ◘◘
◘◘ ◘◘
◘◘ ◘◘
◘◘ ◘◘
◘◘ ◘◘
◘◘ Format : MPEG-4 ◘◘
◘◘ Format profile : Base Media / Version 2 ◘◘
◘◘ Codec ID : mp42 ◘◘
◘◘ File size : 699 MiB ◘◘
◘◘ Duration : 1h 42mn ◘◘
◘◘ Overall bit rate : 950 Kbps ◘◘
◘◘ ◘◘
◘◘ Video ◘◘
◘◘ ID : 1 ◘◘
◘◘ Format : AVC ◘◘
◘◘ Format/Info : Advanced Video Codec ◘◘
◘◘ Format profile : High@L3.0 ◘◘
◘◘ Format settings, CABAC : Yes ◘◘
◘◘ Format settings, ReFrames : 4 frames ◘◘
◘◘ Codec ID : avc1 ◘◘
◘◘ Codec ID/Info : Advanced Video Coding ◘◘
◘◘ Duration : 1h 42mn ◘◘
◘◘ Bit rate mode : Variable ◘◘
◘◘ Bit rate : 788 Kbps ◘◘
◘◘ Width : 712 pixels ◘◘
◘◘ Height : 368 pixels ◘◘
◘◘ Display aspect ratio : 1.935 ◘◘
◘◘ Frame rate mode : Variable ◘◘
◘◘ Frame rate : 29.970 fps ◘◘
◘◘ Minimum frame rate : 29.960 fps ◘◘
◘◘ Maximum frame rate : 29.970 fps ◘◘
◘◘ Color space : YUV ◘◘
◘◘ Chroma subsampling : 4:2:0 ◘◘
◘◘ Bit depth : 8 bits ◘◘
◘◘ Scan type : Progressive ◘◘
◘◘ Bits/(Pixel*Frame) : 0.100 ◘◘
◘◘ Stream size : 577 MiB (83%) ◘◘
◘◘ Writing library : x264 core 112 ◘◘
◘◘ ◘◘
◘◘ Audio ◘◘
◘◘ ID : 2 ◘◘
◘◘ Format : AAC ◘◘
◘◘ Format/Info : Advanced Audio Codec ◘◘
◘◘ Format profile : LC ◘◘
◘◘ Codec ID : 40 ◘◘
◘◘ Duration : 1h 42mn ◘◘
◘◘ Bit rate mode : Variable ◘◘
◘◘ Bit rate : 160 Kbps ◘◘
◘◘ Maximum bit rate : 206 Kbps ◘◘
◘◘ Channel(s) : 2 channels ◘◘
◘◘ Channel positions : Front: L R ◘◘
◘◘ Sampling rate : 48.0 KHz ◘◘
◘◘ Compression mode : Lossy ◘◘
◘◘ Stream size : 118 MiB (17%) ◘◘
◘◘ Language : English ◘◘
◘◘ ◘◘
◘◘◘◘
◘◘◘◘
◘◘◘◘◘◘◘◘◘◘◘◘◘◘◘◘◘◘◘◘◘◘◘◘◘◘◘◘◘◘◘◘◘◘◘◘◘◘◘◘◘◘◘◘◘◘◘◘◘◘◘◘◘◘◘◘◘◘◘◘◘◘◘◘◘◘◘◘◘◘◘◘◘◘◘◘
◘◘◘◘◘◘◘◘◘◘◘◘◘◘◘◘◘◘◘◘◘◘◘◘◘◘◘◘◘◘◘◘◘◘◘◘◘◘◘◘◘◘◘◘◘◘◘◘◘◘◘◘◘◘◘◘◘◘◘◘◘◘◘◘◘◘◘◘◘◘◘◘◘◘◘◘
◘◘◘◘
◘◘◘◘
◘◘ ◘◘
◘◘ ◘◘
◘◘ ◘◘
◘◘ ◘◘
◘◘ ◘◘
◘◘ ◘◘
◘◘ ◘◘
◘◘ ◘◘
◘◘ ◘◘
◘◘ ◘◘
◘◘ ◘◘
◘◘ Immortals (2011) ◘◘
◘◘ Theseus is a mortal man chosen by Zeus to lead the fight against ◘◘
◘◘ the ruthless King Hyperion, who is on a rampage across Greece ◘◘
◘◘ to obtain a weapon that can destroy humanity. ◘◘
◘◘ ◘◘
◘◘ ◘◘
◘◘ ◘◘
◘◘ ◘◘
◘◘ 6.8/10 ◘◘
◘◘ 16,696 Votes. ◘◘
◘◘ ◘◘
◘◘ ◘◘
◘◘ ◘◘
◘◘ ◘◘
◘◘ ◘◘
◘◘ http://www.imdb.com/title/tt1253864/ ◘◘
◘◘ ◘◘
◘◘ ◘◘
◘◘ ◘◘
◘◘◘◘
◘◘◘◘
◘◘◘◘◘◘◘◘◘◘◘◘◘◘◘◘◘◘◘◘◘◘◘◘◘◘◘◘◘◘◘◘◘◘◘◘◘◘◘◘◘◘◘◘◘◘◘◘◘◘◘◘◘◘◘◘◘◘◘◘◘◘◘◘◘◘◘◘◘◘◘◘◘◘◘◘
◘◘◘◘◘◘◘◘◘◘◘◘◘◘◘◘◘◘◘◘◘◘◘◘◘◘◘◘◘◘◘◘◘◘◘◘◘◘◘◘◘◘◘◘◘◘◘◘◘◘◘◘◘◘◘◘◘◘◘◘◘◘◘◘◘◘◘◘◘◘◘◘◘◘◘◘
◘◘◘◘
◘◘◘◘
◘◘ ◘◘
◘◘ ◘◘
◘◘ ◘◘
◘◘ ◘◘
◘◘ ◘◘
◘◘ ◘◘
◘◘

Related Torrents

torrent name size files age seed leech

Sharing Widget


Download torrent
706.2 MB
seeders:0
leechers:1
Immortals (2011) DVDSCR x264-BBnRG

Trackers

tracker name Status checked seeders leechers downloads
udp://tracker.publicbt.com:80/announce
outdated 26 Nov 2011 - - -
http://tracker.openbittorrent.com/announce
outdated 26 Nov 2011 - - -
udp://tracker.openbittorrent.com:80/announce
outdated 26 Nov 2011 - - -
http://exodus.desync.com:6969/announce
blocked 19 Aug 2012 - - -
http://tracker.publicbt.com/announce
deleted 11 Mar 2013 - - -
µTorrent compatible trackers list

Locations

name
ThePirateBay
Limetorrents
Torrent hash: cee2cb22ab3c08b490368503ad8dec7b68f232cb

All Comments

audio
0/10
video
0/10
please, leave only comments related to that torrent
or sign-in
Report a bug