Immortals 2011 CAM READNFO XViD-U.S.M

seeders: 2
leechers: 0
Added on Nov 14, 2011 in Movies
Torrent verified. Downloaded once.

Summary:
Theseus is a mortal man chosen by Zeus to lead the fight against the ruthless King Hyperion, who is on a rampage across Greece to obtain a weapon that can destroy humanity.
Submitted by ROBBREDD698718
report summary
Immortals 2011 CAM READNFO XViD-U.S.M (Size: 793.9 MB)
  Immortals 2011 CAM READNFO XViD - U.S.M.avi 782.57 MB
  Immortals 2011 CAM XViD - U.S.M.nfo 4.36 KB
  sample.avi 11.32 MB

Description

SOURCES:

Immortals.2011.3D.SORS.RELIZLAB
THS

IMDB:

http://www.imdb.com/title/tt1253864/

Video
ID : 0
Format : MPEG-4 Visual
Format profile : Advanced Simple@L5
Format settings, BVOP : 2
Format settings, QPel : No
Format settings, GMC : No warppoints
Format settings, Matrix : Default (MPEG)
Muxing mode : Packed bitstream
Codec ID : XVID
Codec ID/Hint : XviD
Duration : 1h 41mn
Bit rate : 936 Kbps
Width : 608 pixels
Height : 320 pixels
Display aspect ratio : 1.900
Frame rate : 25.000 fps
Color space : YUV
Chroma subsampling : 4:2:0
Bit depth : 8 bits
Scan type : Progressive
Compression mode : Lossy
Bits/(Pixel*Frame) : 0.192
Stream size : 682 MiB (87%)
Writing library : XviD 64

Audio
ID : 1
Format : MPEG Audio
Format version : Version 1
Format profile : Layer 3
Codec ID : 55
Codec ID/Hint : MP3
Duration : 1h 41mn
Bit rate mode : Constant
Bit rate : 128 Kbps
Channel(s) : 2 channels
Sampling rate : 44.1 KHz
Compression mode : Lossy
Delay relative to video : 11ms
Stream size : 93.3 MiB (12%)
Alignment : Split accross interleaves
Interleave, duration : 40 ms (1.00 video frame)
Interleave, preload duration : 500 ms



WORKDONE:

Was kindly given the russian source file....but its a small res source
Anyway for this made a script which contained heavy noise removal,deinterlace and resize.
Once done,dropped it into vdub and then tweaked so more.The black borders at the top,bottom and left side
weren't straight so i needed to use the perspective filter to remove them without losing any video.
After that i increased the contrast alot as it was washed out and also had to lower the chroma down alot.
Only upscaled to 608 as any higher would just cause more issues.
Audio was dropped into adobe and remastered ...cleaning it up and changing the EQ,before finally remuxing.
Check sample for Q.



http://i.imgur.com/H6ngJ.png

http://i.imgur.com/JnEuN.png

http://i.imgur.com/SFaJC.png

http://i.imgur.com/X8iZQ.png

Related Torrents

torrent name size files age seed leech

Sharing Widget


Download torrent
793.9 MB
seeders:2
leechers:0
Immortals 2011 CAM READNFO XViD-U.S.M

Trackers

tracker name Status checked seeders leechers downloads
udp://tracker.publicbt.com:80/announce
outdated 14 Nov 2011 - - -
http://tracker.openbittorrent.com/announce
outdated 14 Nov 2011 - - -
udp://tracker.openbittorrent.com:80/announce
outdated 14 Nov 2011 - - -
http://exodus.desync.com:6969/announce
blocked 23 Aug 2012 - - -
http://tracker.publicbt.com/announce
deleted 11 Mar 2013 - - -
http://tracker.novalayer.org:6969/announce
pending 14 Nov 2011 0 0 0
µTorrent compatible trackers list

Locations

name
ThePirateBay
Limetorrents
Torrent hash: 18747a5109a2a9fafdb9c84fc1d2401b8a756ea4

All Comments

audio
4/10
video
4/10
please, leave only comments related to that torrent
or sign-in
0
pete-je713274 • 15 November 2011, 20:44
torrent downloaded
Show comment
audio: 4video: 4
thanks

User Opinions

Report a bug