Ice Age Continental Drift 2012 CAM NEW SOURCE XVID - ARiSE

seeders: 9
leechers: 5
Added on Jul 5, 2012 by UsaBit177.69K in Movies
Torrent verified. Downloaded 13 times.

Ice Age Continental Drift 2012 CAM NEW SOURCE XVID - ARiSE (Size: 1.41 GB)
  Ice Age Continental Drift 2012 CAM NEW SOURCE XVID - ARiSE.nfo 4.87 KB
  Ice Age SAMPLE - ARiSE.avi 24.51 MB
  [UsaBit.com] -Ice Age Continental Drift 2012 CAM NEW SOURCE XVID - ARiSE.avi 1.38 GB
  www.UsaBit.com.txt 0 bytes

Description

image

Manny, Diego, and Sid embark upon another adventure after their continent is set adrift. Using an iceberg as a ship, they encounter sea creatures and battle pirates as they explore a new world.

SOURCES:
AUDIO - Friends
VIDEO - Spanish TS HQ XVID


STATS:
Video
ID : 0
Format : MPEG-4 Visual
Format profile : Advanced Simple@L5
Format settings, BVOP : 2
Format settings, QPel : No
Format settings, GMC : No warppoints
Format settings, Matrix : Default (MPEG)
Muxing mode : Packed bitstream
Codec ID : XVID
Codec ID/Hint : XviD
Duration : 1h 19mn
Bit rate : 2 345 Kbps
Width : 720 pixels
Height : 320 pixels
Display aspect ratio : 2.25:1
Frame rate : 25.000 fps
Color space : YUV
Chroma subsampling : 4:2:0
Bit depth : 8 bits
Scan type : Progressive
Compression mode : Lossy
Bits/(Pixel*Frame) : 0.407
Stream size : 1.30 GiB (94%)
Writing library : XviD 64

Audio
ID : 1
Format : MPEG Audio
Format version : Version 1
Format profile : Layer 3
Mode : Joint stereo
Mode extension : MS Stereo
Codec ID : 55
Codec ID/Hint : MP3
Duration : 1h 19mn
Bit rate mode : Constant
Bit rate : 128 Kbps
Channel(s) : 2 channels
Sampling rate : 48.0 KHz
Compression mode : Lossy
Stream size : 72.9 MiB (5%)
Alignment : Split accross interleaves
Interleave, duration : 40 ms (1.00 video frame)
Interleave, preload duration : 500 ms



WORKDONE:

Ok we were kindly gives these lovely files ;-) ....the video was nice and MUCH better than all the other sources out.
Still had some issues ...but worse part was the video noise.
Audio was inc and was english ac3 2.0 and syncd ...now the sync was good and the audio was really decent cam audio....however
it was quite loud and the levels were peaking alot,causing some distortion.

Took the video first and cleaned up the noise,thenn slightly changed the rgb colours and increased the sat.Then fine tuned the brightness and contrast levels,before finally adding some sharpness back.
Audio we opted too level the DBs by about -10 and then changed all the EQ bands and resaved as a mp3 file.
Just left then too mux the files together .

Some might label this as a TS but i can say 200% its a cam ( audio ) whilst there doesn't seem too be any laughter ( only scrolled through ) or any other kind of noise like that,it still doesn't have that life a line audio does.
See source says TS ....but we would like too label it for what it really is ...CAM.


image

image

image

image

Sharing Widget


Download torrent
1.41 GB
seeders:9
leechers:5
Ice Age Continental Drift 2012 CAM NEW SOURCE XVID - ARiSE

Trackers

tracker name Status checked seeders leechers downloads
udp://tracker.istole.it:80/announce
outdated 13 Feb 2013 - - -
udp://tracker.1337x.org:80/announce
outdated 13 Feb 2013 - - -
http://tracker.istole.it/announce
outdated 13 Feb 2013 - - -
udp://tracker.publicbt.com:80/announce
outdated 13 Feb 2013 - - -
udp://tracker.openbittorrent.com:80/announce
outdated 13 Feb 2013 - - -
http://exodus.desync.com:6969/announce
blocked 13 Feb 2013 - - -
http://tracker.publicbt.com/announce
deleted 11 Mar 2013 - - -
udp://fr33domtracker.h33t.com:3310/announce
deleted 13 Feb 2013 - - -
ĀµTorrent compatible trackers list

Locations

name
KickassTorrents
Torrent hash: 105CC0A6034459C06B40CB70812D983CDE6E932D

All Comments

audio
8/10
video
7/10
please, leave only comments related to that torrent
or sign-in
0
zacdee2000237 • 10 July 2012, 10:22
torrent downloaded
Show comment
audio: 8video: 7

User Opinions

Report a bug