Ice Age Complete Collection 2002-2009 720p BluRay DTS x264-H

seeders: 0
leechers: 1
Added on Feb 23, 2011 by pardeep33365.03K in Movies
Torrent verified. Downloaded 0 times.

Ice Age Complete Collection 2002-2009 720p BluRay DTS x264-H (Size: 12.79 GB)
  Ice.Age.2002.720p.BluRay.DTS.x264-HiDt
  Ice.Age.Dawn.of.the.Dinosaurs.2009.720p.BluRay.DTS.x264-HiDt
  Ice.Age.The.Meltdown.2006.720p.BluRay.DTS.x264-HiDt
  Torrent downloaded from Demonoid.me.txt 46 bytes

Description

image

General
Format : Matroska
File size : +- 4 GiB per movie
Duration : +-1h 30mn
Overall bit rate : 6 418 Kbps
Encoded date : UTC 2009-11-07 10:45:34
Writing application : mkvmerge v2.9.8 ('C'est le bon') built on Aug 13 2009 12:49:06
Writing library : libebml v0.7.7 + libmatroska v0.8.1

Video
ID : 1
Format : AVC
Format/Info : Advanced Video Codec
Format profile : High@L4.1
Format settings, CABAC : Yes
Format settings, ReFrames : 8 frames
Muxing mode : Container profile=Unknown@4.1
Codec ID : V_MPEG4/ISO/AVC
Duration : 1h 31mn
Bit rate : 4 621 Kbps
Nominal bit rate : 4 782 Kbps
Width : 1 280 pixels
Height : 690 pixels
Display aspect ratio : 1.855
Frame rate : 23.976 fps
Resolution : 8 bits
Colorimetry : 4:2:0
Scan type : Progressive
Bits/(Pixel*Frame) : 0.218
Stream size : 2.94 GiB (72%)
Title : x264
Language : English

Audio #1
ID : 2
Format : DTS
Format/Info : Digital Theater Systems
Codec ID : A_DTS
Duration : 1h 31mn
Bit rate mode : Constant
Bit rate : 1 510 Kbps
Channel(s) : 6 channels
Channel positions : Front: L C R, Surround: L R, LFE
Sampling rate : 48.0 KHz
Resolution : 24 bits
Stream size : 985 MiB (24%)
Title : DTS 5.1
Language : English

Audio #2
ID : 3
Format : Vorbis
Format settings, Floor : 1
Codec ID : A_VORBIS
Duration : 1h 31mn
Bit rate mode : Constant
Bit rate : 80.0 Kbps
Channel(s) : 2 channels
Sampling rate : 48.0 KHz
Stream size : 52.2 MiB (1%)
Title : Commentary 1
Writing library : aoTuV b5c (UTC 2008-12-15)
Language : English

Audio #3
ID : 4
Format : Vorbis
Format settings, Floor : 1
Codec ID : A_VORBIS
Duration : 1h 31mn
Bit rate mode : Constant
Bit rate : 80.0 Kbps
Channel(s) : 2 channels
Sampling rate : 48.0 KHz
Stream size : 52.2 MiB (1%)
Title : Commentary 2
Writing library : aoTuV b5c (UTC 2008-12-15)
Language : English

Text #1
ID : 5
Format : UTF-8
Codec ID : S_TEXT/UTF8
Codec ID/Info : UTF-8 Plain Text
Language : English

Text #2
ID : 6
Format : UTF-8
Codec ID : S_TEXT/UTF8
Codec ID/Info : UTF-8 Plain Text
Language : Bulgarian

Related Torrents

torrent name size files age seed leech

Sharing Widget


Download torrent
12.79 GB
seeders:0
leechers:1
Ice Age Complete Collection 2002-2009 720p BluRay DTS x264-H

Trackers

tracker name Status checked seeders leechers downloads
udp://tracker.publicbt.com:80/announce
outdated 21 Oct 2013 - - -
udp://tracker.openbittorrent.com:80/announce
outdated 21 Oct 2013 - - -
http://tracker.openbittorrent.com/announce
outdated 13 Mar 2013 - - -
http://inferno.demonoid.me:3413/announce
outdated 13 Mar 2013 - - -
http://tracker.publicbt.com/announce
deleted 13 Mar 2013 - - -
µTorrent compatible trackers list

Locations

name
KickassTorrents
Torrent hash: 909d6aa949481e2957823ea4a6c6e81928d239b2

All Comments

audio
10/10
video
10/10
please, leave only comments related to that torrent
or sign-in
0
anonymous • 03 March 2012, 15:27 Show comment
audio: 10video: 10

User Opinions

jaybobkenedy5203, Cl0ud71907
Report a bug