Ice Age 4 Continental Drift 2012 Cam XviD Feel-Free

seeders: 10
leechers: 7
Added on Jul 6, 2012 by feel-free20.08K in Movies
Torrent verified. Downloaded 10 times.

Ice Age 4 Continental Drift 2012 Cam XviD Feel-Free (Size: 940.87 MB)
  Ice.Age.4.Continental.Drift.2012.Cam.XviD.Feel-Free.avi 939.67 MB
  Ice.Age.4.Continental.Drift.2012.Cam.XviD.Feel-Free.nfo 3.28 KB
  iceage4poster.jpg 56.3 KB
  Torrent downloaded from extratorrent.com.txt 171 bytes
  vlcsnap-2012-07-05-20h01m31s34.png 264.69 KB
  vlcsnap-2012-07-05-20h02m22s37.png 232.84 KB
  vlcsnap-2012-07-05-20h03m21s112.png 347.16 KB
  vlcsnap-2012-07-05-20h04m50s227.png 327.62 KB

Description

image
image



Genre:Animation | Adventure | Comedy
Language:English
IMDb:http://www.imdb.com/title/tt1667889/
Source:26K Thanks!
Encoder:Tony

Format : AVI
Format/Info : Audio Video Interleave
File size : 940 MiB
Duration : 1h 19mn
Overall bit rate : 1 649 Kbps

Video
ID : 0
Format : MPEG-4 Visual
Format profile : Advanced Simple@L5
Format settings, BVOP : 1
Format settings, QPel : No
Format settings, GMC : No warppoints
Format settings, Matrix : Default (H.263)
Codec ID : XVID
Codec ID/Hint : XviD
Duration : 1h 19mn
Bit rate : 1 448 Kbps
Width : 640 pixels
Height : 280 pixels
Display aspect ratio : 2.25:1
Frame rate : 25.000 fps
Color space : YUV
Chroma subsampling : 4:2:0
Bit depth : 8 bits
Scan type : Progressive
Compression mode : Lossy
Bits/(Pixel*Frame) : 0.323
Stream size : 825 MiB (88%)
Writing library : XviD 1.2.1 (UTC 2008-12-04)

Audio
ID : 1
Format : AC-3
Format/Info : Audio Coding 3
Mode extension : CM (complete main)
Format settings, Endianness : Big
Codec ID : 2000
Duration : 1h 19mn
Bit rate mode : Constant
Bit rate : 192 Kbps
Channel(s) : 2 channels
Channel positions : Front: L R
Sampling rate : 48.0 KHz
Bit depth : 16 bits
Compression mode : Lossy
Stream size : 109 MiB (12%)
Alignment : Aligned on interleaves
Interleave, duration : 40 ms (1.00 video frame)
Interleave, preload duration : 512 ms


Plot:
Manny, Diego, and Sid embark upon another adventure after their continent is set adrift. Using an iceberg as a ship, they encounter sea creatures and battle pirates as they explore a new world.

image
image
image



Greets:
CRYS,INSPiRAL,IMAGINE,LKRG,ADTRG,FXG,3Li,FLAWL3SS,CrEwSaDe,TA,iLLUSiON,EMBER,HOPE,GooN,BBnRG,NOGRP,ETRG,BHRG,iLLUMiNATi,MiSTERE.ViSiON,DTRG SAFCuk009,LU,TheFalcon007,MYSTiC,PrisM,Noir,WBZ,LAP,Rx,Kingdom,SAFCuk009+Fabreezy,HDLiTE,TWiZTED,ETRG.ELEKTRI4KA,MAGNAT,CM8
And to all the other p2p grps past and present

Make sure its a real Feel-Free release @ http://extratorrent.com
Thanks to all who promotes release Feel-Free !!!

Related Torrents

torrent name size files age seed leech

Sharing Widget


Download torrent
940.87 MB
seeders:10
leechers:7
Ice Age 4 Continental Drift 2012 Cam XviD Feel-Free

Trackers

tracker name Status checked seeders leechers downloads
udp://tracker.openbittorrent.com:80/announce
outdated 10 Mar 2014 - - -
udp://tracker.publicbt.com:80/announce
outdated 10 Mar 2014 - - -
udp://tracker.istole.it:80/announce
outdated 10 Mar 2014 - - -
udp://tracker.1337x.org:80/announce
outdated 10 Mar 2014 - - -
http://exodus.desync.com:6969/announce
blocked 10 Mar 2014 - - -
udp://fr33domtracker.h33t.com:3310/announce
deleted 10 Mar 2014 - - -
µTorrent compatible trackers list

Locations

name
KickassTorrents
Torrent hash: 62FD5026BA1B0679F6B68124E2667E453583694E

All Comments

audio
6/10
video
6/10
please, leave only comments related to that torrent
or sign-in
0
oldsunshine347 • 01 October 2012, 01:48
torrent downloaded
Show comment
audio: 8video: 8
not bad-thank you
0
anonymous • 23 September 2012, 16:07 Show comment
audio: 1video: 1
this suck man
0
jawjey147 • 18 September 2012, 04:17
torrent downloaded
Show comment
audio: 8video: 5
image is soft but watchable, thanks!
0
waka-paka-woo631 • 11 September 2012, 23:43
torrent downloaded
Show comment
audio: 7video: 7
Watchable and quick download. Kids loved it. A7 V7
0
anonymous • 11 September 2012, 06:27 Show comment
i found better quality at http://easyhd.cullam.com Thank you anyway!
0
anonymous • 11 September 2012, 05:47 Show comment
V:5 A:3 this is pretty bad, but there is better one here http://easy.cullam.com Thank you anyway!
0
anonymous • 10 September 2012, 14:28 Show comment
here is even better quality http://sickk.danielhur.com
0
anonymous • 10 September 2012, 14:06 Show comment
A:4, V:3, but thnx anyway. here is the best quality i found so far: http://pro.namvietpro.com Thank you anyway!
Show More

User Opinions

SaMatShaN3870, bustnbronco3502, sommelier1546, godslinux975, darauwalaimran683, samjoel298, M@rtin227, toblakai131, r6nut54, warmad549 ... And 299 more
jeanm75941, packard1759, anishbagchi589, rramya90527, hope464, dig4dug2451, lucko401, Poetiq73, Turac400040, mzwetwet5 ... And 16 more
Report a bug