Hulk (2003)1080p BDRip In[Hindi-Eng]6CH-AC3 By !!!dip

seeders: 0
leechers: 2
Added on Dec 26, 2011 in Movies
Torrent verified. Downloaded 10 times.

Summary:
Bruce Banner, a genetics researcher with a tragic past, suffers an accident that causes him to transform into a raging green monster when he gets angry.
Submitted by Trige64.22K
report summary
Hulk (2003)1080p BDRip In[Hindi-Eng]6CH-AC3 By !!!dip (Size: 2.82 GB)
  Sample
  _____padding_file_0_if you see this file, please update to BitComet 0 407.12 KB
  _____padding_file_1_if you see this file, please update to BitComet 0 194.9 KB
  _____padding_file_2_if you see this file, please update to BitComet 0 245.54 KB
  _____padding_file_3_if you see this file, please update to BitComet 0 233.41 KB
  _____padding_file_4_if you see this file, please update to BitComet 0 276.44 KB
  _____padding_file_5_if you see this file, please update to BitComet 0 291.62 KB
  _____padding_file_6_if you see this file, please update to BitComet 0 89.53 KB
  HOW TO USE Hindi AUDIO SEPARATE.txt 222 bytes
  _____padding_file_7_if you see this file, please update to BitComet 0 511.78 KB
  Hulk (2003)Extended Verson 1080p BDRip In[Hindi Audio]6CH-AC3 By !!!dip.mka 423.76 MB
  _____padding_file_8_if you see this file, please update to BitComet 0 241.95 KB
  Hulk (2003)Extended Verson 1080p BDRip In[Hindi-Eng]6CH-AC3 By !!!dip.mkv 2.38 GB
  _____padding_file_9_if you see this file, please update to BitComet 0 460.5 KB
  JOIN IN FACE BOOK COMMUNITY OR GROUP.txt 1.59 KB

Description

=!DK GROUP HD BLURAY RELEAESEES!=

===================================================================================



Hulk(2003)Extended Verson 1080p BDRip[HIndi-Eng-Tamil]6CH-AC3 By !!!dip


===================================================================================

Storyline:

Bruce Banner, a brilliant scientist with a cloudy past about his family, is involved in an accident in his laboratory causing him to become exposed to gamma radiation and Nanomeds (A tiny life-form that is supposed to heal wounds but has killed everything with which they have made contact). Confused and curious about his survival, Banner discovers that since the accident, whenever he becomes angry he transforms into a giant green monster destroying everything in sight in an act of fury. Bruce's mysterious past and the answer to why the radiation had this effect becomes revealed to him as his Birth Father David Banner intervenes with hopes to continue experimenting on him. Written by Séamus Hanly

Cast:

Eric Bana ... Bruce Banner
Jennifer Connelly... Betty Ross
Sam Elliott ... Ross
Josh Lucas ... Talbot
Nick Nolte ... Father
Paul Kersey ... Young David Banner
Cara Buono ... Edith Banner
Todd Tesen ... Young Ross
Kevin Rankin ... Harper
Celia Weston ... Mrs. Krensler
Mike Erwin ... Teenage Bruce Banner
Lou Ferrigno ... Security Guard
Stan Lee ... Security Guard
Regi Davis ... Security Guard
Craig Damon ... Security Guard


Directors :Ang Lee
Writers :Stan Lee (Marvel comic book character), Jack Kirby (Marvel comic book character)
Stars: Eric Bana, Jennifer Connelly and Sam Elliott
Genre: Action | Sci-Fi
Language:[English-Hindi-Tamil]
Format :Color, Dubbed,Widescreen
Release Date:20 June 2003 (USA)
SUBTITLE:English
Encoder:Deep Shikha



Video Specifications:

Video
ID : 1
Format : AVC
Format/Info : Advanced Video Codec
Format profile : Main@L4.0
Format settings, CABAC : Yes
Format settings, ReFrames : 4 frames
Muxing mode : Header stripping
Codec ID : V_MPEG4/ISO/AVC
Duration : 2h 12mn
Bit rate : 2 071 Kbps
Width : 1 920 pixels
Height : 800 pixels
Display aspect ratio : 16:9
Frame rate mode : Variable
Frame rate : 25.000 fps
Color space : YUV
Chroma subsampling : 4:2:0
Bit depth : 8 bits
Scan type : Progressive
Bits/(Pixel*Frame) : 0.054
Stream size : 1.92 GiB (81%)
Title : !!!dip
Team : DK Group HD Bluray Releases


Audio Specifications:


Audio
ID : 1
Format : AC-3
Format/Info : Audio Coding 3
Mode extension : CM (complete main)
Muxing mode : Header stripping
Codec ID : A_AC3
Duration : 2h 12mn
Bit rate mode : Constant
Bit rate : 448 Kbps
Channel(s) : 6 channels
Channel positions : Front: L C R, Side: L R, LFE
Sampling rate : 48.0 KHz
Bit depth : 16 bits
Compression mode : Lossy
Stream size : 425 MiB (17%)
Title : !!!dip
Language : English

Audio
ID : 2
Format : AC-3
Format/Info : Audio Coding 3
Mode extension : CM (complete main)
Muxing mode : Header stripping
Codec ID : A_AC3
Duration : 2h 12mn
Bit rate mode : Constant
Bit rate : 448 Kbps
Channel(s) : 6 channels
Channel positions : Front: L C R, Side: L R, LFE
Sampling rate : 48.0 KHz
Bit depth : 16 bits
Compression mode : Lossy
Stream size : 424 MiB
Title : !!!dip
Language : Hindi


Text
ID : 3
Format : UTF-8
Codec ID : S_TEXT/UTF8
Codec ID/Info : UTF-8 Plain Text
Title : !!!dip
Language : English



SAMPLE IMAGE:

http://imagestorage.org/images/96169789071687233534.jpg

http://imagestorage.org/images/75872421224053815310.jpg

http://imagestorage.org/images/53193970132198269488.jpg

http://imagestorage.org/images/43101980137743263976.jpg

http://imagestorage.org/images/18554110864370769401.jpg

http://imagestorage.org/images/06581723986473325328.jpg


VIDEO SAMPLE IS AVAILABLE

Related Torrents

torrent name size files age seed leech

Sharing Widget


Download torrent
2.82 GB
seeders:0
leechers:2
Hulk (2003)1080p BDRip In[Hindi-Eng]6CH-AC3 By !!!dip

Trackers

tracker name Status checked seeders leechers downloads
http://pow7.com/announce
active 04 Oct 2014 0 0 0
http://t1.pow7.com/announce
active 04 Oct 2014 0 0 0
udp://tracker.openbittorrent.com:80/announce
active 04 Oct 2014 0 2 10
udp://tracker.publicbt.com:80/announce
active 04 Oct 2014 0 2 10
udp://tracker.istole.it:80/announce
active 04 Oct 2014 0 1 10
udp://tracker.1337x.org:80/announce
outdated 01 Mar 2014 - - -
http://10.rarbg.com/announce
private 01 Mar 2014 - - -
http://exodus.desync.com:6969/announce
blocked 01 Mar 2014 - - -
http://tracker.ilibr.org/announce
blocked 01 Mar 2014 - - -
http://tracker.novalayer.org:6969/announce
pending 01 Mar 2014 0 0 0
µTorrent compatible trackers list

Locations

name
ThePirateBay
ExtraTorrent
Limetorrents
Torrent hash: 252b58ab6f443bd443e5eb1ae45563df5226eba4

All Comments

audio
7/10
video
9/10
please, leave only comments related to that torrent
or sign-in
0
Sam22202227 • 25 July 2013, 03:42
torrent downloaded
Show comment
audio: 8video: 8
Nice
0
anonymous • 05 January 2013, 19:22 Show comment
audio: 1video: 10
NO HINDI AUDIO WORKING
0
anonymous • 18 October 2012, 15:45 Show comment
how to use hindi audio?
0
anonymous • 23 November 2012, 10:29 Show comment
Use Vlc Player Select Audio - Hindi
0
Rajan_Singh616 • 28 August 2012, 10:49
torrent downloaded
Show comment
audio: 7video: 10
Video Is Great,But Hindi Audio Is Lot Low.
Hindi Audio : 7/10 (Audio Clear But Very Low,Kept My Speaker At Full Volume)
English Audio : 9/10 (Again Low Audio But Ok)
Video : 10/10
0
Maheshch98 • 06 August 2012, 08:10 Show comment
audio: 10video: 10
Nice Quality
0
srtecstasy7126 • 31 May 2012, 10:27
torrent downloaded
Show comment
audio: 8video: 8
Good 1080p-TY.
0
badasab474 • 20 May 2012, 02:25
torrent downloaded
Show comment
audio: 9video: 8
ALL GOOD OK FOR THE COLLECTION

User Opinions

Report a bug