Hugo 2011 720p BRRip x264 (599MB) [Exclusive]~~~[CooL GuY] {{a2zRG}}

seeders: 1
leechers: 0
Added on Apr 29, 2012 by a2zRG24.37K in Movies > Highres Movies
Torrent verified. Downloaded 0 times.

Hugo 2011 720p BRRip x264 (599MB) [Exclusive]~~~[CooL GuY] {{a2zRG}} (Size: 600.28 MB)
  Hugo 2011 720p BRRip x264 (599MB) [Exclusive]~~~[CooL GuY] {{a2zRG}}.m4v 600.2 MB
  Hugo 2011 720p BRRip x264 (599MB) [Exclusive]~~~[CooL GuY] {{a2zRG}}.srt 69.65 KB
  Cover.jpg 16.48 KB
  Torrent downloaded from extratorrent.com.txt 353 bytes
  If You Like My Work Then Like Me On Facebook.txt 253 bytes
  torrent_downloaded_from_www.digtorrent.org.txt 192 bytes
  AhaShare.com.txt 59 bytes
  Torrent downloaded from Kat.ph.txt 42 bytes
  Torrent downloaded from Silvertorrents.me.txt 41 bytes
  Torrent downloaded from TorrentMafia.in.txt 39 bytes
  Torrent downloaded from 1337x.org.txt 33 bytes
  tracked_by_h33t_com.txt 19 bytes
  Please Don't Forget To Say Thanks To.txt 5 bytes

Description

Hugo 2011 720p BRRip x264 (599MB) [Exclusive]~~~[CooL GuY] {{a2zRG}}

image

image

image

http://www.imdb.com/title/tt0970179/


General

Complete name : Hugo 2011 720p BRRip x264 (599MB) [Exclusive]~~~[CooL GuY] {{a2zRG}}
Format : MPEG-4
Format profile : Base Media / Version 2
Codec ID : mp42
File size : 600 MiB
Duration : 2h 6mn
Overall bit rate mode : Variable
Overall bit rate : 664 Kbps
Encoded date : UTC 2012-04-28 12:20:20
Tagged date : UTC 2012-04-28 14:03:05
Writing application : HandBrake 0.9.5 2011010300

Video

ID : 1
Format : AVC
Format/Info : Advanced Video Codec
Format profile : Main@L3.1
Format settings, CABAC : Yes
Format settings, ReFrames : 4 frames
Codec ID : avc1
Codec ID/Info : Advanced Video Coding
Duration : 2h 6mn
Bit rate mode : Variable
Bit rate : 499 Kbps
Width : 1 280 pixels
Height : 720 pixels
Display aspect ratio : 16:9
Frame rate mode : Variable
Frame rate : 23.976 fps
Minimum frame rate : 5.994 fps
Maximum frame rate : 23.981 fps
Color space : YUV
Chroma subsampling : 4:2:0
Bit depth : 8 bits
Scan type : Progressive
Bits/(Pixel*Frame) : 0.023
Stream size : 451 MiB (75%)
Writing library : x264 core 112


Audio

ID : 2
Format : AAC
Format/Info : Advanced Audio Codec
Format profile : LC
Codec ID : 40
Duration : 2h 6mn
Bit rate mode : Variable
Bit rate : 160 Kbps
Maximum bit rate : 286 Kbps
Channel(s) : 2 channels
Channel positions : Front: L R
Sampling rate : 44.1 KHz
Compression mode : Lossy
Delay relative to video : -209ms
Stream size : 145 MiB (24%)





If You Like My Post Then Please Visit :-

image


Facebook Page :- http://www.facebook.com/pages/A2Z-RG/278496908901013


Facebook Group :- http://www.facebook.com/groups/403553456329800/


Screen Shots :-

image

image

image

image


image


image

Related Torrents

torrent name size files age seed leech

Sharing Widget


Download torrent
600.28 MB
seeders:1
leechers:0
Hugo 2011 720p BRRip x264 (599MB) [Exclusive]~~~[CooL GuY] {{a2zRG}}

Trackers

tracker name Status checked seeders leechers downloads
udp://9.rarbg.com:2710/announce
outdated 02 Apr 2014 - - -
udp://tracker.publicbt.com:80/announce
outdated 02 Apr 2014 - - -
udp://tracker.openbittorrent.com:80/announce
outdated 02 Apr 2014 - - -
udp://tracker.1337x.org:80/announce
outdated 18 Jul 2013 - - -
http://tracker.istole.it/announce
outdated 18 Jul 2013 - - -
http://tracker.ccc.de/announce
outdated 18 Jul 2013 - - -
udp://tracker.istole.it:80/announce
outdated 18 Jul 2013 - - -
udp://fr33domtracker.h33t.com:3310/announce
deleted 18 Jul 2013 - - -
http://tracker.publicbt.com/announce
deleted 18 Jul 2013 - - -
udp://tracker.ccc.de:80/announce
deleted 18 Jul 2013 - - -
ĀµTorrent compatible trackers list

Locations

name
KickassTorrents
Torrent hash: FE81F707D72C503F47314DE0FFDB9012E0D70776

All Comments

audio
8/10
video
9/10
please, leave only comments related to that torrent
or sign-in
0
anonymous • 26 December 2013, 07:18 Show comment
Seed [:Qcry]
0
anonymous • 03 February 2013, 17:40 Show comment
One of the best movies!
0
anonymous • 03 February 2013, 17:20 Show comment
Excellent video quality but many movies I download seem soo silent! I have to turn to full volume, subs, ear phones even then I barely hear them speaking whereas the Hindi dub is perfectly loud.. ANything wrong with my speakers?
0
jokey420331 • 28 November 2012, 06:27
torrent downloaded
Show comment
audio: 9video: 8
guud 1
0
vikalpg4075 • 14 October 2012, 15:01
torrent downloaded
Show comment
audio: 10video: 10
thx a2zRG
0
anonymous • 14 August 2012, 04:34 Show comment
Quality is good, not great. There tends to be pixelation due to compression for size. Definitely not YIFY
0
roytoto1 • 27 July 2012, 23:52
torrent downloaded
Show comment
audio: 4video: 8
great movie
0
goobersmum239 • 16 July 2012, 00:51
torrent downloaded
Show comment
audio: 7video: 7
great movie download
0
drxgrrimm627 • 11 July 2012, 10:16
torrent downloaded
Show comment
audio: 9video: 9
perfect...
0
anonymous • 25 June 2012, 21:11 Show comment
audio: 10video: 10
Show More

User Opinions

Jesterz6477, vikalpg4075, princevillareal1070, me4fun578, flyingman470, SantiagoSanjoy219, rusty_vin209, manalij117, dankaninny38, sammysaeed33 ... And 17 more
MyVidsRocK11.69K
Report a bug