How To Train Your Dragon TS XViD - IMAGiNE

seeders: 0
leechers: 1
Added on Mar 31, 2010 in Movies
Torrent verified. Downloaded 0 times.

Summary:
A hapless young Viking who aspires to hunt dragons becomes the unlikely friend of a young dragon himself, and learns there may be more to the creatures than he assumed.
Submitted by 5fingerdis47.08K
report summary
How To Train Your Dragon TS XViD - IMAGiNE (Size: 718.81 MB)
  How To Train Your Dragon TS XViD - IMAGiNE.avi 709.24 MB
  Release info.txt 4.57 KB
  sample.avi 9.57 MB
  Torrent downloaded from AhaShare.com.txt 59 bytes

Description

Love for All and Sharing is the first step to solving all the problems of humanity.

Websites I want to share.


http://www.shareintl.org/


http://www.lightmiddleway.comThank you very much

No credit for me...credit to EVERYONE for sharing

http://thepiratebay.org/user/raymondhome/

PLOT
A hapless young Viking who aspires to hunt dragons becomes the unlikely owner of a young dragon himself, and learns there may be more to the creatures than he assumed.

IMDb RATING: 8.3/10 (3,041 votes)

Runtime...........:1h 28mn
Video
ID : 0
Format : MPEG-4 Visual
Format profile : Advanced Simple@L5
Format settings, BVOP : Yes
Format settings, QPel : No
Format settings, GMC : No warppoints
Format settings, Matrix : Default (MPEG)
Muxing mode : Packed bitstream
Codec ID : XVID
Codec ID/Hint : XviD
Duration : 1h 28mn
Bit rate : 979 Kbps
Width : 704 pixels
Height : 304 pixels
Display aspect ratio : 2.35:1
Frame rate : 25.000 fps
Resolution : 8 bits
Colorimetry : 4:2:0
Scan type : Progressive
Bits/(Pixel*Frame) : 0.183
Stream size : 622 MiB (88%)
Writing library : XviD 1.2.1 (UTC 2008-12-04)
Audio
ID : 1
Format : MPEG Audio
Format version : Version 1
Format profile : Layer 3
Mode : Joint stereo
Format_Settings_ModeExtension : MS Stereo
Codec ID : 55
Codec ID/Hint : MP3
Duration : 1h 28mn
Bit rate mode : Constant
Bit rate : 128 Kbps
Channel(s) : 2 channels
Sampling rate : 44.1 KHz
Video delay : 60ms
Stream size : 81.3 MiB (11%)
Alignment : Split accross interleaves
Interleave, duration : 40 ms (1.00 video frame)
Interleave, preload duration : 500 ms

IMAGiNE NOTES

Here we have taken the cam from ELEKTRI4KA thanx, and added our line audio to it.
What can we say about this one...well its not the best looking cam but turned out okay after some tweaking of the video here and there. Ran a denoiser on it, tweaked the colors to try and look natural, among a few other things.

credit IMAGiNE & to all the people who made it possible for me to share this with everyone

UPLOAD DEDICATED TO redchaos2354, Motley Crue, jdpennington, BADASS, W1ck3d1nt3ntz, ceo54, DaRkReAlM, ghostman, karakurachow, megaplay, Emery1337x, SaM, geordieboy1979, timamirrockdude, Noir, Shedevil, bone111, JorgeMontana, BlueLady, xxxUniversalAbsurdityxxx, mc68, TheFalcon007, pardeep333, X, DR67, DiNGiE & many, many more & to all the awesome people who are sharing (ALL THE UPLOADERS, THE RIPPERS, THE SCENE GROUPS, ETC, THE WHOLE P2P COMMUNITY)***wish i could list everyone***Thank you very much everyone & i mean EVERYONE!!!

*****help what we can with haiti or any other in need...the world is ONE big family*****

Related Torrents

torrent name size files age seed leech

Sharing Widget


Download torrent
718.81 MB
seeders:0
leechers:1
How To Train Your Dragon TS XViD - IMAGiNE

Trackers

tracker name Status checked seeders leechers downloads
http://tracker.openbittorrent.com/announce
outdated 02 May 2010 - - -
udp://tracker.publicbt.com:80/announce
outdated 31 Mar 2010 - - -
udp://tracker.openbittorrent.com:80/announce
outdated 31 Mar 2010 - - -
http://tracker.publicbt.com/announce
deleted 18 Aug 2011 - - -
ĀµTorrent compatible trackers list

Locations

name
ThePirateBay
Torrent hash: 4ab05790ec0c50a8d108c891e247fe72974b55b0

All Comments

audio
8/10
video
3/10
please, leave only comments related to that torrent
or sign-in
0
katarina-real81 • 12 June 2010, 10:05
torrent downloaded
Show comment
audio: 8video: 3
Yea it's real. But video quality sucks. You can find better quality on YouTube.
0
anonymous • 14 May 2010, 20:45 Show comment
audio: 6video: 6
Great AV, im watching this online at movielook.net.tf
0
anonymous • 30 April 2010, 20:36 Show comment
Hello!!! You can download this file at downloads.webhop.net FAST and DIRECT download! Welcome!
0
anonymous • 11 April 2010, 09:10 Show comment
Im watching this movie online at www.movielook.net.tf
0
anonymous • 09 April 2010, 09:43 Show comment
Im watching this movie online at www.moviedata.us.tf
0
anonymous • 08 April 2010, 00:38 Show comment
Great Flick!
0
anonymous • 06 April 2010, 19:57 Show comment
Im watching this movie online at www.moviesea.net.tf
0
anonymous • 03 April 2010, 10:56 Show comment
Im watching this movie online at moviecame.net.tf
0
anonymous • 03 April 2010, 02:35 Show comment
ne good?
Show More
Report a bug