House.S07E23.HDTV.XviD.Eng-Sub Ita-[IDN_CREW]

seeders: 2
leechers: 0
Added on May 25, 2011 by pippifly1807 in TV
Torrent verified. Downloaded 18 times.

  • View all House episodes
  • Episode title: Moving On
  • Episode: S07E23
  • Air date: 23 May 2011
  • Original run: 16 November 2004 — 21 May 2012
House.S07E23.HDTV.XviD.Eng-Sub Ita-[IDN_CREW] (Size: 350.76 MB)
  House.S07E23.HDTV.XviD.Eng-Sub Ita-[IDN_CREW].avi 350.72 MB
  House.S07E23.HDTV.XviD.Eng-Sub Ita-[IDN_CREW].srt 46.56 KB
  IDN_CREW Leggimi.txt 294 bytes

Description

House - Settima Staggione - HDTVRip Eng Sub Ita

image

image

Nazionalità: U.S.A.
Genere: medical drama
Stagione: 7
Episodi: 22
Durata: 43 minuti ad episodio
Lingua: Inglese
Creato da: David Shore
Distribuzione: Heel & Toe Productions, Bad Hat Harry Productions e NBC Universal Television

Interpreti e Personaggi

image

Hugh Laurie: Gregory House
Lisa Edelstein: Lisa Cuddy
Robert Sean Leonard: James Wilson
Omar Epps: Eric Foreman
Jesse Spencer: Robert Chase
Peter Jacobson: Chris Taub
Olivia Wilde: Remy "Tredici" Hadley

Inoltre prossimamente in lista nuovi nomi di Guest Star che prenderanno parte ad alcuni episodi

image

image

Con l’arrivo dell’autunno stanno riprendendo tutte le serie tv più seguite dai telespettatori, una tra queste è quella del Dr. House. Nei giorni scorsi è giunta la voce della morte del doppiatore italiano proprio del protagonista, l’irriverente House che con la sua ironia ci ha tenuto compagnia in questi anni.

Sicuramente tra i medical drama finora prodotti e trasmessi, il posto d’onore nella hit parade spetta al Dr House.
Un serial che ha saputo sapientemente mescolare i cardini del genere con la costruzione davvero geniale di un personaggio.
Dr. House - Medical Division (House, M.D.) è una serie televisiva statunitense ideata da David Shore e Paul Attanasio e trasmessa da Fox a partire dal 2004; l'emittente televisiva ha ufficialmente accreditato Shore come creatore. La serie è incentrata attorno al ruolo del dottor Gregory House, un medico poco convenzionale ma dotato di grande capacità ed esperienza, a capo di una squadra di medicina diagnostica presso il fittizio ospedale universitario Princeton-Plainsboro Teaching Hospital, nel New Jersey.
Finora abbiamo avuto il piacere di vedere ben sei stagioni di Dr House e il grande ritorno con la settima stagione di Dr. House. Dopo avere visto un emozionante finale nella scorsa stagione in cui House e Cuddy dichiaravano apertamente i sentimenti che nutrivano l’uno per l’altro, li rivediamo ad esplorare tutte le emozioni che provano e i loro progetti per far funzionare la loro relazione. In definitiva la settima sarà la stagione della febbre "Huddy” (Il nome Huddy non è quello di un nuovo personaggio, bensì deriva dalla fusione tra House e Cuddy), quindi una stagione dell'amore per il Dr.House che, tra una malattia rara ed un'altra, dovrà anche condurre una vita sentimentale.
Il solo pensiero fa sorridere e, soprattutto, fa venire la curiosità su come gli autori gestiranno al cosa, la Cuddy ed il Dr.House non sono propriamente due personaggi da intreccio sentimentale.


EPISODI

1. Now What?
2. Selfish
3. Unwritten
4. Massage Therapy
5. Unplanned Parenthood
6. Office Politics
7. A Pox on Our House
8. Small Sacrifices
9. Larger Than Life
10.Carrot or Stick
11. Family Practice
12. You Must Remember This
13. Two Stories
14. Recession Proof
15. Bombshells
16. Out of the Chute
17. Fall from Grace
18. The Dig
19. Last Temptation
20. Changes
21. The Fix
22. After hours
23. Moving on


image

General
Complete name : House.S07E23.HDTV.XviD.Eng-Sub Ita-[IDN_CREW].avi
Format : AVI
Format/Info : Audio Video Interleave
File size : 351 MiB
Duration : 43mn 9s
Overall bit rate : 1 136 Kbps
Writing application : MEncoder SVN-r32669-4.3.2
Writing library : MPlayer

Video
Format : MPEG-4 Visual
Format profile : Streaming Video@L1
Format settings, BVOP : Yes
Format settings, QPel : No
Format settings, GMC : No warppoints
Format settings, Matrix : Default
Muxing mode : Packed bitstream
Codec ID : XVID
Codec ID/Hint : XviD
Duration : 43mn 9s
Bit rate : 996 Kbps
Width : 624 pixels
Height : 352 pixels
Display aspect ratio : 16/9
Frame rate : 23.976 fps
Resolution : 24 bits
Colorimetry : 4:2:0
Scan type : Progressive
Bits/(Pixel*Frame) : 0.189
Stream size : 307 MiB (88%)
Writing library : XviD 50

Audio
Format : MPEG Audio
Format version : Version 1
Format profile : Layer 3
Codec ID : 55
Codec ID/Hint : MP3
Duration : 43mn 9s
Bit rate mode : Variable
Bit rate : 128 Kbps
Channel(s) : 2 channels
Sampling rate : 48.0 KHz
Resolution : 16 bits
Stream size : 39.4 MiB (11%)
Alignment : Aligned on interleaves
Interleave, duration : 24 ms (0.58 video frame)
Interleave, preload duration : 290 ms

image


Ringrazamenti: A Subsfatctory.it per i sottotitoli

image

Related Torrents

torrent name size files age seed leech

Sharing Widget


Download torrent
350.76 MB
seeders:2
leechers:0
House.S07E23.HDTV.XviD.Eng-Sub Ita-[IDN_CREW]

Trackers

tracker name Status checked seeders leechers downloads
http://10.rarbg.com/announce
private 09 May 2012 - - -
http://genesis.1337x.org:1337/announce
outdated 13 Jul 2011 - - -
http://nemesis.1337x.org/announce
outdated 13 Jul 2011 - - -
http://torrent-downloads.to:5869/announce
outdated 25 May 2011 - - -
udp://tracker.publicbt.com:80/announce
outdated 25 May 2011 - - -
udp://tracker.openbittorrent.com:80/announce
outdated 25 May 2011 - - -
http://tracker.openbittorrent.com/announce
outdated 25 May 2011 - - -
http://tracker.publicbt.com/announce
deleted 18 Aug 2011 - - -
http://9.rarbg.com:2710/announce
private 25 May 2011 - - -
http://exodus1337x.org/announce
error 25 May 2011 - - -
µTorrent compatible trackers list

Locations

name
KickassTorrents
Torrent hash: 30EAF738CA740240B7188D8A61290A0F878C3644

All Comments

audio
9/10
video
9/10
please, leave only comments related to that torrent
or sign-in
0
Caos-D2267 • 26 May 2011, 13:50
torrent downloaded
Show comment
audio: 9video: 9

User Opinions

Caos-D2267, ldrudi144
Report a bug