House Of The Rising Sun 2011 XViD BRRip DTRG

seeders: 6
leechers: 2
Added on Jul 6, 2011 in Movies
Torrent verified. Downloaded 35 times.

Available in versions: 1080pHDRiPDVDDVDRip
House Of The Rising Sun 2011 XViD BRRip DTRG (Size: 1.37 GB)
  read me.txt 91 bytes
  House Of The Rising Sun 2011 XViD BRRip DTRG.avi 1.37 GB
  Torrent downloaded from Demonoid.me.txt 46 bytes

Description


image







image







Format : AVI

Format/Info : Audio Video Interleave

File size : 1.37 GiB

Duration : 1h 27mn

Overall bit rate : 2 241 Kbps

Writing application : Lavf52.64.2

Writing library : VirtualDub build 32842/release



Video

ID : 0

Format : MPEG-4 Visual

Format profile : Advanced Simple@L5

Format settings, BVOP : 2

Format settings, QPel : No

Format settings, GMC : No warppoints

Format settings, Matrix : Default (H.263)

Muxing mode : Packed bitstream

Codec ID : XVID

Codec ID/Hint : XviD

Duration : 1h 27mn

Bit rate : 1 910 Kbps

Width : 720 pixels

Height : 400 pixels

Display aspect ratio : 16:9

Frame rate : 24.000 fps

Color space : YUV

Chroma subsampling : 4:2:0

Bit depth : 8 bits

Scan type : Progressive

Compression mode : Lossy

Bits/(Pixel*Frame) : 0.276

Stream size : 1.17 GiB (85%)

Writing library : XviD 64



Audio

ID : 1

Format : AC-3

Format/Info : Audio Coding 3

Mode extension : CM (complete main)

Codec ID : 2000

Duration : 1h 27mn

Bit rate mode : Constant

Bit rate : 320 Kbps

Channel(s) : 2 channels

Channel positions : Front: L R

Sampling rate : 48.0 KHz

Bit depth : 16 bits

Compression mode : Lossy

Stream size : 201 MiB (14%)

Alignment : Aligned on interleaves

Interleave, duration : 32 ms (0.77 video frame)

Interleave, preload duration : 512 ms













http://www.imdb.com/title/tt1788383/









image



Storyline



Ray, an ex-cop, is starting a new life looking to stay out of trouble. One evening, on Ray's watch, the nightclub he works for is robbed and the owner's son is shot dead. As his criminal past is exposed Ray hunts for the person responsible for this crime in an effort to clear his own name. Ray must get to the bottom of this as both the mob and cops start to close in on him as their target suspect.













image









image



image



image



image









Source Used





House Of The Rising Sun 2011 720p BluRay x264-FASTHD .....Thanks











Enjoy











Greetz to IMAGiNE,Flawl3ss,DiLLoN,BDK,NOiR,TOXiC,THC,Ez,Rx,Boobyblue,TaRiQ786,BHRG











image











image







Currently looking for encoders/syncers if anything to offer contact me on dtrg@hush.ai


















Related Torrents

torrent name size files age seed leech

Sharing Widget


Download torrent
1.37 GB
seeders:6
leechers:2
House Of The Rising Sun 2011 XViD BRRip DTRG

Trackers

tracker name Status checked seeders leechers downloads
udp://tracker.openbittorrent.com:80/announce
outdated 13 Oct 2012 - - -
udp://tracker.publicbt.com:80/announce
outdated 13 Oct 2012 - - -
http://inferno.demonoid.me:3396/announce
outdated 13 Oct 2012 - - -
udp://tracker.istole.it:80/announce
outdated 13 Oct 2012 - - -
http://genesis.1337x.org:1337/announce
outdated 13 Oct 2012 - - -
http://tracker.openbittorrent.com/announce
outdated 13 Oct 2012 - - -
http://tracker.istole.it/announce
outdated 13 Oct 2012 - - -
http://tracker.publicbt.com/announce
deleted 13 Oct 2012 - - -
ĀµTorrent compatible trackers list

Locations

name
1337x
ExtraTorrent
Torrent hash: 863fc5387dcaf53acd27ed8e5bedc4fad3b6c503

All Comments

audio
0/10
video
0/10
please, leave only comments related to that torrent
or sign-in
0
anonymous • 19 July 2011, 02:53 Show comment
Free HD movies, Full Game Downloads, Free Tv series! check @ http://tinyurl.com/tryitnowforfree

User Opinions

Raph9790, Jay-P27680
Report a bug