Home on the Range[DVDRip][2004]

seeders: 0
leechers: 0
Added on Apr 9, 2009 in Movies
Torrent verified. Downloaded 0 times.

  • add Home on the Range to bookmarks
  • Writers: Will Finn, John Sanford, Will Finn (story), John Sanford (story), Michael LaBash (story), Sam J. Levine (story), Mark Kennedy (story), Robert Lence (story), Keith Baxter (additional story), Mike Kunkel (additional story), Jason Lethcoe (additional story),
Summary:
To save their farm, the resident animals go bounty hunting for a notorious outlaw.
Written by phoenix66118.94K
report summary
Available in versions: 1080p720pBDRipDVDRip
Home on the Range[DVDRip][2004] (Size: 698.77 MB)
  noname.jpg 44.47 KB
  Torrent downloaded from Demonoid.com.txt 47 bytes
  HOM0EUM1

Description

Description

Round up the family and get ready for a whole lotta fun with Disney's hilarious animated comedy Home On The Range. When a greedy outlaw schemes to take possession of the "Patch of Heaven" dairy farm, three determined cows, a karate-kicking stallion named Buck and a colourful corral of critters join forces to save their home. The stakes are sky-high as this unlikely animal alliance risks their hides and match wits with a mysterious band of bad guys. Experience Disney's new moo-vie adventure with stunning animation, lovable characters and original songs.

Format : AVI
Format/Info : Audio Video Interleave
File size : 699 MiB
Duration : 1h 13mn
Overall bit rate : 1 336 Kbps

Video
Format : MPEG-4 Visual
Format profile : Simple@L3
Format settings, BVOP : No
Format settings, QPel : No
Format settings, GMC : No warppoints
Format settings, Matrix : Default
Codec ID : XVID
Codec ID/Hint : XviD
Duration : 1h 13mn
Bit rate : 1 196 Kbps
Width : 640 pixels
Height : 360 pixels
Display aspect ratio : 16/9
Frame rate : 25.000 fps
Resolution : 24 bits
Colorimetry : 4:2:0
Scan type : Progressive
Bits/(Pixel*Frame) : 0.208
Stream size : 625 MiB (90%)
Writing library : Magic0432

Audio
Format : MPEG Audio
Format version : Version 1
Format profile : Layer 3
Codec ID : 55
Codec ID/Hint : MP3
Duration : 1h 13mn
Bit rate mode : Constant
Bit rate : 128 Kbps
Channel(s) : 2 channels
Sampling rate : 44.1 KHz
Resolution : 16 bits
Stream size : 66.9 MiB (10%)
Alignment : Aligned on interleaves
Interleave, duration : 26 ms (0.65 video frame)
Writing library : LAME3.97

Related Torrents

torrent name size files age seed leech

Sharing Widget


Download torrent
698.77 MB
seeders:0
leechers:0
Home on the Range[DVDRip][2004]

Trackers

tracker name Status checked seeders leechers downloads
http://tracker.ccc.de/announce
outdated 03 Sep 2013 - - -
http://tracker.torrent.to:2710/announce
outdated 03 Sep 2013 - - -
http://tracker.openbittorrent.com/announce
outdated 03 Sep 2013 - - -
http://tracker.bittorrent.am/announce
outdated 03 Sep 2013 - - -
http://nyaatorrents.org:3277/announce
private 22 Apr 2009 - - -
http://tracker.torrentbox.com:2710/announce
error 25 Sep 2010 - - -
http://inferno.demonoid.com:3410/announce
error 04 Apr 2010 - - -
http://tracker.to:2710/announce
error 22 Apr 2009 - - -
http://www.torrentsnipe.info:2701/announce
error 22 Apr 2009 - - -
http://www.swap-haven.com:2710/announce
error 22 Apr 2009 - - -
http://www.torrent-downloads.to:2710/announce
error 22 Apr 2009 - - -
ĀµTorrent compatible trackers list

Locations

name
ThePirateBay
Mininova
SumoTorrent
SumoTorrent
Torrentzap
yourBittorrent
Torrent hash: e59749f1d8f60a9d0ebefd8ed8fb1827242812ed

All Comments

audio
9/10
video
9/10
please, leave only comments related to that torrent
or sign-in
0
Diamond091662 • 29 August 2012, 03:17
torrent downloaded
Show comment
audio: 9video: 9
NO VIRUS.. A9/V9.. GOOD COPY.. THANKS FOR SHARING.
0
anonymous • 27 July 2012, 13:36 Show comment
audio: 10video: 10
Amazing quality. :) Thank you UL & thank you seeders! :)
0
BMWTech343 • 10 July 2012, 09:44
torrent downloaded
Show comment
audio: 9video: 9
Good quality!! Kids weren't very interested in the movie though. Thanks uploader
0
ScrubbyB2663 • 28 June 2012, 19:01
torrent downloaded
Show comment
audio: 9video: 9
thx for the up~!!!
0
Captain.Seas.Cruelty1177 • 27 March 2012, 01:27
torrent downloaded
Show comment
audio: 9video: 9
GOOD
0
xanderdoo202 • 19 March 2012, 14:15
torrent downloaded
Show comment
audio: 10video: 10
Looks great! Thanks!
0
anonymous • 16 January 2012, 07:10 Show comment
i only wish there were more seeders...
0
Myrl70 • 11 January 2012, 08:32
torrent downloaded
Show comment
audio: 9video: 9
Sweet movie, great quality
Show More All

User Opinions

Report a bug