Home Of The Brave

seeders: 0
leechers: 0
Added on May 12, 2010 in Movies
Torrent verified. Downloaded 13 times.

Home Of The Brave (Size: 521.19 MB)
  Home Of The Brave_2006.avi 521.19 MB
  Home Of The Brave 2006.txt 2.22 KB

Description


The day after they get the word they'll go home in two weeks, a group of soldiers from Spokane are ambushed in an Iraqi city. Back stateside we follow four of them - a surgeon who saw too much, a teacher who's a single mom and who lost a hand in the ambush, an infantry man whose best friend died that day, and a soldier who keeps reliving the moment he killed a civilian woman. Each of the four has come home changed, each feels dislocation. Group therapy, V.A. services, halting gestures from family and colleagues, and regular flashbacks keep the war front and center in their minds. They're angry, touchy, and explosive: can a warrior find peace back home?





Format : AVI

Format/Info : Audio Video Interleave

File size : 521 MiB

Duration : 1h 42mn

Overall bit rate : 713 Kbps

Writing application : MEncoder SVN-r29352(20090610-gcc4.3.3)

Writing library : MPlayer



Video

Format : avc1

Codec ID : avc1

Duration : 1h 42mn

Bit rate : 572 Kbps

Width : 480 pixels

Height : 360 pixels

Display aspect ratio : 4:3

Frame rate : 25.000 fps

Bits/(Pixel*Frame) : 0.133

Stream size : 419 MiB (80%)



Audio

ID : 1

Format : MPEG Audio

Format version : Version 1

Format profile : Layer 3

Mode : Joint stereo

Format_Settings_ModeExtension : MS Stereo

Codec ID : 55

Codec ID/Hint : MP3

Duration : 1h 42mn

Bit rate mode : Constant

Bit rate : 128 Kbps

Channel(s) : 2 channels

Sampling rate : 44.1 KHz

Stream size : 93.6 MiB (18%)

Alignment : Aligned on interleaves

Interleave, duration : 26 ms (0.65 video frame)

Interleave, preload duration : 522 ms




Related Torrents

torrent name size files age seed leech

Sharing Widget


Download torrent
521.19 MB
seeders:0
leechers:0
Home Of The Brave

Trackers

tracker name Status checked seeders leechers downloads
http://nemesis.1337x.org/announce
outdated 17 May 2011 - - -
http://genesis.1337x.org:1337/announce
outdated 20 Apr 2011 - - -
http://tracker.openbittorrent.com/announce
outdated 12 May 2010 - - -
udp://tracker.openbittorrent.com:80/announce
outdated 12 May 2010 - - -
udp://tracker.publicbt.com:80/announce
outdated 12 May 2010 - - -
http://tracker.publicbt.com/announce
deleted 10 Mar 2011 - - -
ĀµTorrent compatible trackers list

Locations

name author
1337x
Torrent hash: c493ab91317c42645492e6c77aa82c3b142cc301

All Comments

audio
0/10
video
0/10
please, leave only comments related to that torrent
or sign-in
Report a bug