Hesher 2010 BRRIP 720P H264-ZEKTORM

seeders: 6
leechers: 1
Added on Aug 7, 2011 in Movies > Highres Movies
Torrent verified. Downloaded 10 times.

  • Movie: Hesher
  • Detected quality: HDRiP
  • IMDb link: 1403177
  • IMDb rating: 7.1 (15,869 votes)
  • RottenTomatoes: 54% 61%
  • Genre: Drama
Summary:
A young boy has lost his mother and is losing touch with his father and the world around him. Then he meets Hesher who manages to make his life even more chaotic.
Submitted by phoenix66110.57K
report summary
Available in versions: 1080p720pBDRipHDRiPDVDDVDRip
Hesher 2010 BRRIP 720P H264-ZEKTORM (Size: 2.25 GB)
  Hesher.2010.BRRIP.720P.H264-ZEKTORM.mp4 2.25 GB
  read.hlp 13.51 KB
  Torrent downloaded from Demonoid.me.txt 46 bytes

Description

Title : Hesher
Year : 2010
Genre : Drama
iMDB URL : http://www.imdb.com/title/tt1403177/

Complete name : Hesher.2010.BRRIP.720P.H264-ZEKTORM.mp4
Format : MPEG-4
Format profile : Base Media
Codec ID : isom
File size : 2.25 GiB
Duration : 1h 45mn
Overall bit rate : 3047 Kbps

Video
ID : 1
Format : AVC
Format/Info : Advanced Video Codec
Format profile : High@L4.0
Format settings, CABAC : Yes
Format settings, ReFrames : 9 frames
Codec ID : avc1
Codec ID/Info : Advanced Video Coding
Duration : 1h 45mn
Bit rate mode : Variable
Bit rate : 2647 Kbps
Width : 1280 pixels
Height : 720 pixels
Display aspect ratio : 16/9
Frame rate mode : Constant
Frame rate : 24.000 fps
Resolution : 24 bits
Colorimetry : 4:2:0
Scan type : Progressive
Bits/(Pixel*Frame) : 0.120
Stream size : 1.95 GiB (87%)
Title : Video
Writing library : x264

Audio
ID : 2
Format : AAC
Format/Info : Advanced Audio Codec
Format version : Version 4
Format profile : LC
Format settings, SBR : No
Codec ID : 40
Duration : 1h 45mn
Bit rate mode : Variable
Bit rate : 396 Kbps
Maximum bit rate : 585 Kbps
Channel(s) : 6 channels
Channel positions : Front: L C R, Rear: L R, LFE
Sampling rate : 48.0 KHz
Resolution : 16 bits
Stream size : 299 MiB (13%)
Language : English


Screenshots:

image

image

image

image

Sharing Widget


Download torrent
2.25 GB
seeders:6
leechers:1
Hesher 2010 BRRIP 720P H264-ZEKTORM

Trackers

tracker name Status checked seeders leechers downloads
http://inferno.demonoid.me:3399/announce
outdated 20 Apr 2014 - - -
udp://tracker.openbittorrent.com:80/announce
outdated 20 Apr 2014 - - -
udp://tracker.publicbt.com:80/announce
outdated 20 Apr 2014 - - -
http://tracker.openbittorrent.com/announce
outdated 18 Aug 2013 - - -
http://nemesis.1337x.org/announce
outdated 18 Aug 2013 - - -
http://torrent-downloads.to:5869/announce
outdated 18 Aug 2013 - - -
http://exodus.1337x.org/announce
outdated 18 Aug 2013 - - -
http://tracker.csze.com/announce
outdated 18 Aug 2013 - - -
http://tracker.token.ro/announce
outdated 18 Aug 2013 - - -
http://pow7.com/announce
outdated 18 Aug 2013 - - -
http://secure.pow7.com/announce
outdated 18 Aug 2013 - - -
http://tracker.torrentbay.to:6969/announce
outdated 18 Aug 2013 - - -
http://tracker.publicbt.com/announce
deleted 18 Aug 2013 - - -
ĀµTorrent compatible trackers list

Locations

name
ThePirateBay
ExtraTorrent
Torrent hash: 3eda63682891aa73f4978ebb26f79323f1a66fc8

All Comments

audio
9/10
video
9/10
please, leave only comments related to that torrent
or sign-in
0
anonymous • 14 September 2014, 00:08 Show comment
have tried quicktime, VLC, iTunes, and MPEG Streamclip. Video is great, no audio... What gives!?
0
ge0rgeds458 • 30 August 2014, 21:46
torrent downloaded
Show comment
audio: 8video: 9
0
BunnyOlesen1423 • 25 January 2014, 19:13
torrent downloaded
Show comment
audio: 9video: 9
Splendiferous - tack! wink
0
Addie85560 • 31 December 2013, 10:31
torrent downloaded
Show comment
audio: 9video: 9
0
Darshay5921 • 22 March 2013, 02:41
torrent downloaded
Show comment
audio: 9video: 9
Good torrent !biggrin
0
kova181078 • 12 August 2012, 20:02
torrent downloaded
Show comment
audio: 9video: 9
0
dmzthprodigy1726 • 07 July 2012, 23:07
torrent downloaded
Show comment
audio: 9video: 9
thanks
-1
LDiablo254 • 02 May 2012, 23:45
torrent downloaded
Show comment
audio: 7video: 7
quality is good. Too bad the movie couldn't be the same
0
kikinfl20042439 • 09 March 2012, 14:13
torrent downloaded
Show comment
audio: 10video: 10
Great Copy ...Great Movie..Thnx Uploader..Thnx KAT :)
0
Charlott437 • 22 February 2012, 17:59
torrent downloaded
Show comment
audio: 10video: 10
awesome!
Show More

User Opinions

WhiteFrog3835, kikinfl20042439, Dr.evil chemz1901, ToxicSoldier1356, etro646, BBRoamer627, JayAce596, kid_ankit507, Anil1990491, [I]baneZ91 ... And 30 more
Report a bug