Hercules In New York

seeders: 1
leechers: 0
Added on May 19, 2012 in Movies
Downloaded 10 times.

Hercules In New York (Size: 700.07 MB)
  Hercules In New York.arabic.srt 77.56 KB
  Hercules in new york.avi 699.9 MB
  Hercules in new york.srt 91.65 KB
  Torrent downloaded from Demonoid.me.txt 46 bytes

Description

first movie for Arnold Schwarzenegger 1969

this film is not the worst movie you watch

2.9 rate by IMDb honestly its too low

i know maybe 70% from Arnold fans watch this movie in the past but its good to waste some time with smile

i upload "Hercules In New York" for fan and collector

i spend some time searching for better copy alive but no hope

and for that,download it in silent mode and don`t complain about 700mb quality its better than nothing
more info

http://www.imdb.com/title/tt0065832/

Storyline

After many centuries, Hercules gets bored living in Olympus (the home of the great Greek gods) and decides to move to... New York. But obviously, it is not easy for a man who lived in ancient Greece to get used to modern life. So, things get a little tricky, especially when Zeus sends a few gods to bring his semi-god son back to mount Olympus....IMDB
Director: Arthur Allan Seidelman

Writer:Aubrey Wisberg

Stars:Arnold Schwarzenegger,Arnold Stang,Deborah Loomis
General

Hercules In New York

Format: AVI

File size: 700 MiB

Duration: 1h 32mn

Overall bit rate: 1 056 Kbps

Writing application: VirtualDubMod
Video

ID: 0

Format: MPEG-4 Visual

Format profile: Advanced Simple@L5

Codec ID : XVID

Duration: 1h 32mn

Bit rate: 911 Kbps

Width: 640 pixels

Height: 480 pixels

Display aspect ratio: 4:3

Frame rate : 23.976 fps

Bits/(Pixel*Frame): 0.124

Stream size: 604 MiB (86%)
Audio

ID: 1

Format: MPEG Audio

Format profile : Layer 3

Mode: Joint stereo

Codec ID: MP3

Duration : 1h 32mn

Bit rate mode: Variable

Bit rate: 128 Kbps

Channel(s): 2 channels

Sampling rate: 48.0 KHz

Stream size: 87.4 MiB (12%)

Language: English
note:-

the one who upload the file is @sickboy88 so thanks to him
if you want to seed just seed if not then don't,you will seed! ooh i cant force you so seed or not its up to you

Related Torrents

torrent name size files age seed leech

Sharing Widget


Download torrent
700.07 MB
seeders:1
leechers:0
Hercules In New York

Trackers

tracker name Status checked seeders leechers downloads
udp://tracker.openbittorrent.com:80/announce
outdated 01 Mar 2014 - - -
udp://tracker.istole.it:80/announce
outdated 01 Mar 2014 - - -
udp://tracker.publicbt.com:80/announce
outdated 07 Sep 2012 - - -
http://tracker.1337x.org/announce
outdated 07 Sep 2012 - - -
http://tracker.istole.it/announce
outdated 07 Sep 2012 - - -
http://tracker.ccc.de/announce
outdated 07 Sep 2012 - - -
http://exodus.desync.com:6969/announce
blocked 07 Sep 2012 - - -
http://tracker.publicbt.com/announce
deleted 11 Mar 2013 - - -
udp://fr33domtracker.h33t.com:3310/announce
deleted 07 Sep 2012 - - -
udp://tracker.ccc.de:80/announce
deleted 07 Sep 2012 - - -
ĀµTorrent compatible trackers list

Locations

name
ExtraTorrent
Torrent hash: FC5FA7E50C6E8F255E39027029DABD7ED0DFFD2D

All Comments

audio
0/10
video
0/10
please, leave only comments related to that torrent
or sign-in

User Opinions

Report a bug