Harry Potter And The Deathly Hallows 7 Part-1 (2010) BRRip 720p [6Ch][Dual Audio][Eng-Hindi]-MEGUIL

seeders: 2
leechers: 2
Added on Apr 17, 2011 by eda007340 in Movies > Highres Movies
Torrent verified. Downloaded 42 times.

Summary:
As Harry races against time and evil to destroy the Horcruxes, he uncovers the existence of three most powerful objects in the wizarding world: the Deathly Hallows.
Submitted by Hand_of_Doom91.63K
report summary
Harry Potter And The Deathly Hallows 7 Part-1 (2010) BRRip 720p [6Ch][Dual Audio][Eng-Hindi]-MEGUIL (Size: 1.41 GB)
  Screenshots
  Harry Potter And The Deathly Hallows 7 Part-1 (2010) BRRip 720p [6Ch][Dual... 1.39 GB
  sample.mkv 12.06 MB
  Cover.jpg 140.03 KB
  Harry Potter And The Deathly Hallows 7 Part-1 (2010) BRRip 720p [6Ch][Dual... 93.07 KB
  info.nfo 15.95 KB

Description

image

image


image
http://www.imdb.com/title/tt0926084/



image
Bill Nighy ... Minister Rufus Scrimgeour
Emma Watson ... Hermione Granger
Richard Griffiths ... Vernon Dursley
Harry Melling ... Dudley Dursley
Daniel Radcliffe ... Harry Potter
Julie Walters ... Molly Weasley
Bonnie Wright ... Ginny Weasley
Rupert Grint ... Ron Weasley
Ian Kelly ... Mr. Granger
Michelle Fairley ... Mrs. Granger
Fiona Shaw ... Petunia Dursley
Alan Rickman ... Professor Severus Snape
Carolyn Pickles ... Charity Burbage
Ralph Fiennes ... Lord Voldemort
Helena Bonham Carter ... Bellatrix Lestrange


image
Ripper: MEGUIL

Release Date: 19 November 2010 (India)

Genres: Adventure | Drama | Fantasy | Mystery

Taglines: Part 1 Of The Epic Finale

Storyline
Voldemort's power is growing stronger. He now has control over the Ministry of Magic and Hogwarts. Harry, Ron, and Hermione decide to finish Dumbledore's work and find the rest of the Horcruxes to defeat the Dark Lord. But little hope remains for the Trio, and the rest of the Wizarding World, so everything they do must go as planned.


image
General
Complete name : Harry Potter And The Deathly Hallows 7 Part-1 (2010) BRRip 720p [6Ch][Dual Audio][Eng-Hindi]-MEGUIL
Format : Matroska
File size : 1.46 GiB
Duration : 2h 26mn
Overall bit rate : 1 428 Kbps
Movie name : Harry Potter And The Deathly Hallows 7 Part-1 (2010) BRRip 720p [6Ch][Dual Audio][Eng-Hindi]-MEGUIL
Encoded date : UTC 2011-04-16 16:01:30
Writing library : libebml v1.0.0 + libmatroska v1.0.0


image
Video
ID : 1
Format : AVC
Format/Info : Advanced Video Codec
Format profile : High@L4.1
Format settings, CABAC : Yes
Format settings, ReFrames : 5 frames
Muxing mode : Header stripping
Codec ID : V_MPEG4/ISO/AVC
Duration : 2h 26mn
Bit rate : 697 Kbps
Nominal bit rate : 765 Kbps
Width : 1 280 pixels
Height : 528 pixels
Display aspect ratio : 2.40:1
Frame rate : 23.976 fps
Color space : YUV
Chroma subsampling : 4:2:0
Bit depth : 8 bits
Scan type : Progressive
Bits/(Pixel*Frame) : 0.043
Stream size : 728 MiB (51%)
Title : RIPPER~MEGUIL
Writing library : x264 core 60 r900 a9af942

image
Audio #1
ID : 2
Format : AC-3
Format/Info : Audio Coding 3
Mode extension : CM (complete main)
Muxing mode : Header stripping
Codec ID : A_AC3
Duration : 2h 26mn
Bit rate mode : Constant
Bit rate : 256 Kbps
Channel(s) : 6 channels
Channel positions : Front: L C R, Side: L R, LFE
Sampling rate : 48.0 KHz
Bit depth : 16 bits
Compression mode : Lossy
Stream size : 267 MiB (19%)
Title : RIPPER~MEGUIL
Language : English

image
Audio #2
ID : 3
Format : AC-3
Format/Info : Audio Coding 3
Mode extension : CM (complete main)
Muxing mode : Header stripping
Codec ID : A_AC3
Duration : 2h 26mn
Bit rate mode : Constant
Bit rate : 384 Kbps
Channel(s) : 6 channels
Channel positions : Front: L C R, Side: L R, LFE
Sampling rate : 48.0 KHz
Bit depth : 16 bits
Compression mode : Lossy
Stream size : 401 MiB (28%)
Title : RIPPER~MEGUIL
Language : Hindi



image

image

image

image

image

image

image

image

image


image



image


image
image

image

Related Torrents

torrent name size files age seed leech

Sharing Widget


Download torrent
1.41 GB
seeders:2
leechers:2
Harry Potter And The Deathly Hallows 7 Part-1 (2010) BRRip 720p [6Ch][Dual Audio][Eng-Hindi]-MEGUIL

Trackers

tracker name Status checked seeders leechers downloads
udp://open.demonii.com:1337/announce
active 06 Oct 2014 2 2 42
udp://tracker.istole.it:80/announce
active 06 Oct 2014 0 2 10
udp://tracker.openbittorrent.com:80/announce
active 06 Oct 2014 2 1 10
udp://tracker.publicbt.com:80/announce
active 06 Oct 2014 1 2 10
http://nemesis.1337x.org/announce
outdated 14 Jul 2014 - - -
http://exodus.1337x.org/announce
outdated 14 Jul 2014 - - -
http://genesis.1337x.org:1337/announce
outdated 14 Jul 2014 - - -
udp://fr33domtracker.h33t.com:3310/announce
deleted 14 Jul 2014 - - -
udp://tracker.ccc.de:80/announce
deleted 14 Jul 2014 - - -
ĀµTorrent compatible trackers list

Locations

name
KickassTorrents
1337x
ThePirateBay
ExtraTorrent
Torrent hash: bfdd81fd8a646a8176e0890a154fcbae3b4c0e68

Uploader Comments

-3
eda007340 • 03 May 2011, 16:47
torrent downloaded
guys don't know why you peoples cant able to play with mpclassic. i played it. also the screenshot you are seeing are also taken with the mpclassic.
-3
anonymous • 18 Apr 2011, 14:18
useless! dis is not a tru 720 pixel rip! its sumwhat 720*480 pixel rip. description says its 1280*536 rip!
1
eda007340 • 18 Apr 2011, 16:26
who says to downlaod you...just leave it if you think its fake.
0
anonymous • 20 Apr 2011, 07:12
please tell me wat does yhis seed means (frnds)
0
eda007340 • 20 Apr 2011, 17:54
seed means uploading the movie for other,,,means helping othres to download the movie
0
anonymous • 28 Apr 2011, 17:29
can't play it with vlc or mpcstar player. facing same problem "the above file name is invalid"
0
eda007340 • 03 May 2011, 16:43
install latest codec pack
0
anonymous • 28 Apr 2011, 17:37
audio: 10video: 10
can play only d sample file. .very very veryyyyyyy nice print. cannot play the main file even with mpcstar , it says the above file name is invalid.....what to do?? plz help
0
eda007340 • 03 May 2011, 16:42
install the latest codec pack, and then play with media played classic

All Comments

audio
8/10
video
9/10
please, leave only comments related to that torrent
or sign-in
0
anonymous • 23 August 2014, 13:35 Show comment
just rename it.........................................................................
.[:Qwink]
0
emishah1 • 28 May 2014, 09:19 Show comment
rename the folder e.g harry potter 7 and try again
0
anonymous • 28 May 2014, 09:16 Show comment
rename the folder e.g harry potter 7 and try again
0
anabash3548 • 25 October 2013, 18:49
torrent downloaded
Show comment
how to seed frnds plz help me then i'll help others for download
0
KyleSforza60 • 10 June 2013, 23:19
torrent downloaded
Show comment
audio: 10video: 10
This is amazing! :D
0
paras79712542 • 12 May 2013, 01:26 Show comment
audio: 8video: 9
nice thanks
0
xumith348 • 28 April 2013, 11:36
torrent downloaded
Show comment
Thank'x nice movie smile
0
xumith348 • 28 April 2013, 11:33
torrent downloaded
Show comment
audio: 9video: 10
0
neelesh111602 • 14 January 2013, 11:33
torrent downloaded
Show comment
audio: 9video: 9
Show More

User Opinions

Report a bug