Happy Feet Two (2011) READNFO CAM x264-BBnRG

seeders: 4
leechers: 0
Added on Nov 30, 2011 in Movies
Torrent verified. Downloaded 3 times.

Summary:
Mumble's son, Erik, is struggling to realize his talents in the Emperor Penguin world. Meanwhile, Mumble and his family and friends discover a new threat their home -- one that will take everyone working together to save them.
Submitted by Anette14118.95K
report summary
Happy Feet Two (2011) READNFO CAM x264-BBnRG (Size: 534.95 MB)
  Screenshots + Cover
  BBnRG-NFO.nfo 18.42 KB
  Happy Feet Two (2011) READNFO CAM x264-BBnRG.mp4 526.74 MB
  HFT-SAMPLE-BBnRG.mp4 6.01 MB
  READ this before playing the Movie.txt 473 bytes
  www.Torrenting.com.txt 473 bytes

Description

.

http://www.torrenting.com : Once & For all ;)


www . Torrenting . Com

(((((((((((((= Enjoy No RAR releases =))))))))))))))))))))


...................................NFO:....................................

.

◘◘◘◘◘◘◘◘◘◘◘◘◘◘◘◘◘◘◘◘◘◘◘◘◘◘◘◘◘◘◘◘◘◘◘◘◘◘◘◘◘◘◘◘◘◘◘◘◘◘◘◘◘◘◘◘◘◘◘◘◘◘◘◘◘◘◘◘◘◘◘◘◘◘◘◘
◘◘◘◘◘◘◘◘◘◘◘◘◘◘◘◘◘◘◘◘◘◘◘◘◘◘◘◘◘◘◘◘◘◘◘◘◘◘◘◘◘◘◘◘◘◘◘◘◘◘◘◘◘◘◘◘◘◘◘◘◘◘◘◘◘◘◘◘◘◘◘◘◘◘◘◘
◘◘◘◘
◘◘◘◘
◘◘ ◘◘
◘◘ ◘◘
◘◘ ◘◘
◘◘ ◘◘
◘◘ ◘◘
◘◘ ◘◘
◘◘ ◘◘
◘◘ ◘◘
◘◘ ◘◘
◘◘ ◘◘
◘◘ ◘◘
◘◘ ◘◘
◘◘ ◘◘
◘◘ ◘◘
◘◘ ◘◘
◘◘ ◘◘
◘◘ Enjoy Another Fine BBnRG Release... ◘◘
◘◘ ◘◘
◘◘ /--------------------------------------------------------------\ ◘◘
◘◘ (◘◘◘◘◘◘◘◘◘◘ Happy Feet Two (2011) READNFO CAM x264-BBnRG ◘◘◘◘◘◘◘◘) ◘◘
◘◘ \--------------------------------------------------------------/ ◘◘
◘◘ ◘◘
◘◘◘◘
◘◘◘◘
◘◘◘◘◘◘◘◘◘◘◘◘◘◘◘◘◘◘◘◘◘◘◘◘◘◘◘◘◘◘◘◘◘◘◘◘◘◘◘◘◘◘◘◘◘◘◘◘◘◘◘◘◘◘◘◘◘◘◘◘◘◘◘◘◘◘◘◘◘◘◘◘◘◘◘◘
◘◘◘◘◘◘◘◘◘◘◘◘◘◘◘◘◘◘◘◘◘◘◘◘◘◘◘◘◘◘◘◘◘◘◘◘◘◘◘◘◘◘◘◘◘◘◘◘◘◘◘◘◘◘◘◘◘◘◘◘◘◘◘◘◘◘◘◘◘◘◘◘◘◘◘◘
◘◘◘◘
◘◘◘◘
◘◘ ◘◘
◘◘ ◘◘
◘◘ ◘◘
◘◘ ◘◘
◘◘ ◘◘
◘◘ ◘◘
◘◘ ◘◘
◘◘ ◘◘
◘◘ ◘◘
◘◘ ◘◘
◘◘ ◘◘
◘◘ Format : MPEG-4 ◘◘
◘◘ Format profile : Base Media / Version 2 ◘◘
◘◘ Codec ID : mp42 ◘◘
◘◘ File size : 527 MiB ◘◘
◘◘ Duration : 1h 27mn ◘◘
◘◘ Overall bit rate : 842 Kbps ◘◘
◘◘ ◘◘
◘◘ Video ◘◘
◘◘ ID : 1 ◘◘
◘◘ Format : AVC ◘◘
◘◘ Format/Info : Advanced Video Codec ◘◘
◘◘ Format profile : High@L2.1 ◘◘
◘◘ Format settings, CABAC : Yes ◘◘
◘◘ Format settings, ReFrames : 4 frames ◘◘
◘◘ Codec ID : avc1 ◘◘
◘◘ Codec ID/Info : Advanced Video Coding ◘◘
◘◘ Duration : 1h 27mn ◘◘
◘◘ Bit rate mode : Variable ◘◘
◘◘ Bit rate : 675 Kbps ◘◘
◘◘ Width : 688 pixels ◘◘
◘◘ Height : 288 pixels ◘◘
◘◘ Display aspect ratio : 2.35:1 ◘◘
◘◘ Original display aspect ratio : 2.35:1 ◘◘
◘◘ Frame rate mode : Variable ◘◘
◘◘ Frame rate : 23.976 fps ◘◘
◘◘ Minimum frame rate : 23.974 fps ◘◘
◘◘ Maximum frame rate : 23.981 fps ◘◘
◘◘ Color space : YUV ◘◘
◘◘ Chroma subsampling : 4:2:0 ◘◘
◘◘ Bit depth : 8 bits ◘◘
◘◘ Scan type : Progressive ◘◘
◘◘ Bits/(Pixel*Frame) : 0.142 ◘◘
◘◘ Stream size : 424 MiB (80%) ◘◘
◘◘ Writing library : x264 core 112 ◘◘
◘◘ ◘◘
◘◘ Audio ◘◘
◘◘ ID : 2 ◘◘
◘◘ Format : AAC ◘◘
◘◘ Format/Info : Advanced Audio Codec ◘◘
◘◘ Format profile : LC ◘◘
◘◘ Codec ID : 40 ◘◘
◘◘ Duration : 1h 27mn ◘◘
◘◘ Bit rate mode : Variable ◘◘
◘◘ Bit rate : 160 Kbps ◘◘
◘◘ Maximum bit rate : 245 Kbps ◘◘
◘◘ Channel(s) : 2 channels ◘◘
◘◘ Channel positions : Front: L R ◘◘
◘◘ Sampling rate : 44.1 KHz ◘◘
◘◘ Compression mode : Lossy ◘◘
◘◘ Stream size : 100 MiB (19%) ◘◘
◘◘ ◘◘
◘◘◘◘
◘◘◘◘
◘◘◘◘◘◘◘◘◘◘◘◘◘◘◘◘◘◘◘◘◘◘◘◘◘◘◘◘◘◘◘◘◘◘◘◘◘◘◘◘◘◘◘◘◘◘◘◘◘◘◘◘◘◘◘◘◘◘◘◘◘◘◘◘◘◘◘◘◘◘◘◘◘◘◘◘
◘◘◘◘◘◘◘◘◘◘◘◘◘◘◘◘◘◘◘◘◘◘◘◘◘◘◘◘◘◘◘◘◘◘◘◘◘◘◘◘◘◘◘◘◘◘◘◘◘◘◘◘◘◘◘◘◘◘◘◘◘◘◘◘◘◘◘◘◘◘◘◘◘◘◘◘
◘◘◘◘
◘◘◘◘
◘◘ ◘◘
◘◘ ◘◘
◘◘ ◘◘
◘◘ ◘◘
◘◘ ◘◘
◘◘ ◘◘
◘◘ ◘◘
◘◘ ◘◘
◘◘ ◘◘
◘◘ ◘◘
◘◘ ◘◘
◘◘ Happy Feet Two (2011) ◘◘
◘◘ Mumble's son, Erik, is struggling to realize his talents in the ◘◘
◘◘ Emperor Penguin world. Meanwhile, Mumble and his family and friends◘◘
◘◘ discover a new threat their home -- one that will take everyone ◘◘
◘◘ working together to save them. ◘◘
◘◘ ◘◘
◘◘ ◘◘
◘◘ ◘◘
◘◘ ◘◘
◘◘ 5.8/10 ◘◘
◘◘ 1,350 Votes. ◘◘
◘◘ ◘◘
◘◘ ◘◘
◘◘ ◘◘
◘◘ ◘◘
◘◘ http://www.imdb.com/title/tt1402488/ ◘◘
◘◘ ◘◘
◘◘ ◘◘
◘◘ ◘◘
◘◘◘◘
◘◘◘◘
◘◘◘◘◘◘◘◘◘◘◘◘◘◘◘◘◘◘◘◘◘◘◘◘◘◘◘◘◘◘◘◘◘◘◘◘◘◘◘◘◘◘◘◘◘◘◘◘◘◘◘◘◘◘◘◘◘◘◘◘◘◘◘◘◘◘◘◘◘◘◘◘◘◘◘◘
◘◘◘◘◘◘◘◘◘◘◘◘◘◘◘◘◘◘◘◘◘◘◘◘◘◘◘◘◘◘◘◘◘◘◘◘◘◘◘◘◘◘◘◘◘◘◘◘◘◘◘◘◘◘◘◘◘◘◘◘◘◘◘◘◘◘◘◘◘◘◘◘◘◘◘◘
◘◘◘◘
◘◘◘◘
◘◘ ◘◘
◘◘ ◘◘
◘◘ ◘◘
◘◘ ◘◘
◘◘ ◘◘
◘◘ ◘◘
◘◘ ◘◘
◘&#

Related Torrents

torrent name size files age seed leech

Sharing Widget


Download torrent
534.95 MB
seeders:4
leechers:0
Happy Feet Two (2011) READNFO CAM x264-BBnRG

Trackers

tracker name Status checked seeders leechers downloads
udp://tracker.publicbt.com:80/announce
outdated 30 Nov 2011 - - -
http://tracker.openbittorrent.com/announce
outdated 30 Nov 2011 - - -
udp://tracker.openbittorrent.com:80/announce
outdated 30 Nov 2011 - - -
http://exodus.desync.com:6969/announce
blocked 23 Aug 2012 - - -
http://tracker.publicbt.com/announce
deleted 11 Mar 2013 - - -
µTorrent compatible trackers list

Locations

name
ThePirateBay
Fenopy
Limetorrents
Torrent hash: 10690d7a54174691e5a75e7b9577efeaf9531cd8

All Comments

audio
5/10
video
5/10
please, leave only comments related to that torrent
or sign-in
0
VonDutch691857 • 15 January 2012, 11:21
torrent downloaded
Show comment
audio: 3video: 2
I don't mind cams but,if this not your first time,you need to tweak your equipment.
thanks anyway
0
juice001962 • 14 December 2011, 19:20
torrent downloaded
Show comment
audio: 5video: 5
0
Arif-Mart196 • 12 December 2011, 15:18
torrent downloaded
Show comment
audio: 7video: 7
Downloaded the sample but it was weird the video and audio. I'll wait for a better copy..
0
cjflourish63 • 10 December 2011, 21:37
torrent downloaded
Show comment
Thanks, at least I can watch this ahead of ma folks, the much awaited happy feet two.
0
ozpush21 • 04 December 2011, 08:28 Show comment
audio: 8video: 8
Like the cooldude says
first two minutes out of focus (3d) then clears up
Many thanks 8/10 for both
0
anonymous • 03 December 2011, 12:06 Show comment
can someone download and tell me if its worth it
0
Thecooldude2 • 02 December 2011, 04:56 Show comment
The movie downloaded fast,,the first minute is fuzzy but is ok after that....

User Opinions

VJ19751421, oryonix463, pocketgnome352, therich300, glennhawaii264, Knuckles316256, cowboy208177, tanjo129, status187115, cjflourish63 ... And 10 more
VonDutch691857, muki4187, hectorleger40
Report a bug