Green.Lantern.Extended.2011.720p.x264.Feel-Free

seeders: 5
leechers: 3
Added on Oct 6, 2011 by feel-free19976 in Movies
Torrent verified. Downloaded 5,810 times.

Green.Lantern.Extended.2011.720p.x264.Feel-Free (Size: 2.97 GB)
  cmalazi5h9fss99673.jpg 196.41 KB
  Green.Lantern.Extended.2011.720p.x264. 2.84 KB
  Green.Lantern.Extended.2011.720p.x264.Feel-Free.mp4 2.96 GB
  Torrent downloaded from extratorrent.com.txt 171 bytes
  vlcsnap-00001.png 763.29 KB
  vlcsnap-00002.png 848.01 KB
  vlcsnap-00003.png 718.17 KB
  vlcsnap-00004.png 429.13 KB
  vlcsnap-00005.png 867.29 KB
  vlcsnap-00006.png 914.4 KB

Description

image


Genre:Action | Adventure | Fantasy
Language:English
IMDb:http://www.imdb.com/title/tt1133985/
Source:1080p AVC DTSMA Remux Thanks!

Format : MPEG-4
Format profile : Base Media
Codec ID : isom
File size : 2.96 GiB
Duration : 2h 3mn
Overall bit rate : 3 430 Kbps

Video
ID : 1
Format : AVC
Format/Info : Advanced Video Codec
Format profile : High@L4.1
Format settings, CABAC : Yes
Format settings, ReFrames : 3 frames
Codec ID : avc1
Codec ID/Info : Advanced Video Coding
Duration : 2h 3mn
Bit rate mode : Variable
Bit rate : 3 000 Kbps
Maximum bit rate : 23.4 Mbps
Width : 1 280 pixels
Height : 528 pixels
Display aspect ratio : 2.40:1
Frame rate mode : Constant
Frame rate : 23.976 fps
Color space : YUV
Chroma subsampling : 4:2:0
Bit depth : 8 bits
Scan type : Progressive
Bits/(Pixel*Frame) : 0.185
Stream size : 2.58 GiB (87%)
Writing library : x264

Audio
ID : 2
Format : AAC
Format/Info : Advanced Audio Codec
Format version : Version 4
Format profile : LC
Format settings, SBR : No
Codec ID : 40
Duration : 2h 3mn
Bit rate mode : Variable
Bit rate : 443 Kbps
Maximum bit rate : 522 Kbps
Channel(s) : 6 channels
Channel positions : Front: L C R, Side: L R, LFE
Sampling rate : 48.0 KHz
Stream size : 392 MiB (13%)

Plot:
A test pilot is granted a mystical green ring that bestows him with otherworldly powers, as well as membership into an intergalactic squadron tasked with keeping peace within the universe

TRAILER:
[embed=youtube]http://www.youtube.com/watch?v=oazFv302DIM&feature=player_embedded[/embed]

image
image
image
image
image
image

Greets:

INK,CRYS,IMAGINE,LKRG,FXG,3Li,FLAWL3SS,TA,iLLUSiON,ViSiON,DTRG SAFCuk009,LU,TheFalcon007,MYSTiC,PrisM,Noir,WBZ,LAP,Rx,Kingdom,SAFCuk009+Fabreezy,HDLiTE,TWiZTED,ETRG.ELEKTRI4KA,MAGNAT,CM8
And to all the other p2p grps past and present




Make sure its a real Feel-Free release @ http://extratorrent.com

Thanks to all who promotes release Feel-Free !!!

Related Torrents

torrent name size files age seed leech

Sharing Widget


Download torrent
2.97 GB
seeders:5
leechers:3
Green.Lantern.Extended.2011.720p.x264.Feel-Free

Trackers

tracker name Status checked seeders leechers downloads
http://tracker.openbittorrent.com/announce
outdated 19 Sep 2012 - - -
udp://tracker.publicbt.com:80/announce
outdated 19 Sep 2012 - - -
udp://tracker.openbittorrent.com:80/announce
outdated 19 Sep 2012 - - -
udp://tracker.istole.it:80/announce
outdated 19 Sep 2012 - - -
http://pow7.com/announce
outdated 19 Sep 2012 - - -
http://tracker.istole.it/announce
outdated 19 Sep 2012 - - -
http://10.rarbg.com/announce
private 19 Sep 2012 - - -
udp://tracker.1337x.org:80/announce
outdated 19 Sep 2012 - - -
http://tracker.publicbt.com/announce
deleted 11 Mar 2013 - - -
http://9.rarbg.com:2710/announce
private 07 Oct 2011 - - -
http://tracker.novalayer.org:6969/announce
pending 19 Sep 2012 65 589 46
ĀµTorrent compatible trackers list

Locations

name
KickassTorrents
ExtraTorrent
ThePirateBay
Limetorrents
Torrent hash: F9FC3F5999A73BF6A733C369F98C77759AEA0322

All Comments

audio
9/10
video
9/10
please, leave only comments related to that torrent
or sign-in
0
GodEye986910926 • 16 January 2013, 09:29
torrent downloaded
Show comment
audio: 9video: 9
thanks for the share..biggrin
0
sinsanati238 • 10 January 2013, 20:34
torrent downloaded
Show comment
audio: 8video: 8
0
abdoavatar873 • 31 August 2012, 14:18
torrent downloaded
Show comment
audio: 8video: 8
thx
0
shahanish1087 • 08 August 2012, 03:44
torrent downloaded
Show comment
audio: 9video: 9
good print,nice work. Thanx uploader....
0
mandeep1984108 • 16 April 2012, 18:11
torrent downloaded
Show comment
audio: 8video: 8
yeah good job
0
ritwij32 • 23 March 2012, 13:00
torrent downloaded
Show comment
good exelent torrent.....
0
rena1312091 • 11 March 2012, 00:41
torrent downloaded
Show comment
audio: 9video: 9
Great thanks feel-free19976
0
William Riker1333 • 11 February 2012, 17:35
torrent downloaded
Show comment
audio: 9video: 9
Thanks, uploader!
0
jasonb428826 • 24 January 2012, 18:58
torrent downloaded
Show comment
audio: 9video: 9
great quality. thx
Show More

User Opinions

Report a bug