Girls Gone Dead.2012.UNRATED.HDRip.XviD.HS

seeders: 4
leechers: 3
Added on Jul 21, 2012 by Hackullus42232 in Movies
Torrent verified. Downloaded 10 times.

Available in versions: 1080p720pHDRiPDVDDVDRip
Girls Gone Dead.2012.UNRATED.HDRip.XviD.HS (Size: 1.84 GB)
  Girls Gone Dead.2012.UNRATED.HDRip.XviD.HS.avi 1.84 GB
  Torrent downloaded from AhaShare.com.txt 59 bytes
  Torrent downloaded from Demonoid.me.txt 46 bytes
  Torrent downloaded from extratorrent.com.txt 40 bytes
  Torrent downloaded from Rarbg.com.txt 33 bytes
  torrent downloaded from H33T.com.txt 32 bytes

Description

image


Girls Gone Dead 2012 UNRATED HDRip XviD HS


Source--- Who Else



http://www.imdb.com/title/tt1884318/



Format : AVI
Format/Info : Audio Video Interleave
Format profile : OpenDML
File size : 1.84 GiB
Duration : 1h 43mn
Overall bit rate : 2 544 Kbps
Writing application : Lavf52.103.0

Video
ID : 1
Format : MPEG-4 Visual
Format profile : Simple@L1
Format settings, BVOP : No
Format settings, QPel : No
Format settings, GMC : No warppoints
Format settings, Matrix : Default (H.263)
Codec ID : XVID
Duration : 1h 43mn
Bit rate : 2 404 Kbps
Width : 640 pixels
Height : 274 pixels
Display aspect ratio : 2.35:1
Frame rate : 23.976 fps
Color space : YUV
Chroma subsampling : 4:2:0
Bit depth : 8 bits
Scan type : Progressive
Compression mode : Lossy
Bits/(Pixel*Frame) : 0.572
Stream size : 1.74 GiB (94%)
Writing library : Lavc52.116.0

Audio
ID : 0
Format : MPEG Audio
Format version : Version 1
Format profile : Layer 3
Mode : Joint stereo
Mode extension : MS Stereo
Codec ID : 55
Codec ID/Hint : MP3
Duration : 1h 43mn
Bit rate mode : Constant
Bit rate : 128 Kbps
Channel(s) : 2 channels
Sampling rate : 44.1 KHz
Compression mode : Lossy
Stream size : 94.8 MiB (5%)
Alignment : Aligned on interleaves
Interleave, duration : 42 ms (1.00 video frame)
Writing library : LAME3.98.4

image
image
image
image

Related Torrents

torrent name size files age seed leech

Sharing Widget


Download torrent
1.84 GB
seeders:4
leechers:3
Girls Gone Dead.2012.UNRATED.HDRip.XviD.HS

Trackers

tracker name Status checked seeders leechers downloads
udp://9.rarbg.com:2710/announce
outdated 07 Apr 2014 - - -
udp://tracker.openbittorrent.com:80/announce
outdated 07 Apr 2014 - - -
udp://tracker.istole.it:80/announce
outdated 07 Apr 2014 - - -
udp://tracker.publicbt.com:80/announce
outdated 07 Apr 2014 - - -
http://inferno.demonoid.me:3390/announce
outdated 07 Apr 2014 - - -
http://tracker.istole.it/announce
outdated 30 Nov 2012 - - -
http://tracker.publicbt.com/announce
deleted 30 Nov 2012 - - -
udp://fr33domtracker.h33t.com:3310/announce
deleted 30 Nov 2012 - - -
udp://10.rarbg.com:80/announce
private 07 Apr 2014 3 1 10
udp://11.rarbg.com:80/announce
private 07 Apr 2014 4 3 10
ĀµTorrent compatible trackers list

Locations

name
KickassTorrents
Torrent hash: 572ABD504A3493FCEFB30401C942445B5084F8EA

All Comments

audio
8/10
video
8/10
please, leave only comments related to that torrent
or sign-in
0
paciklo942 • 28 August 2012, 17:22
torrent downloaded
Show comment
audio: 9video: 9
0
TOZAM8TE31 • 19 August 2012, 03:07
torrent downloaded
Show comment
audio: 9video: 9
geat quality worst film ever !!
0
bkbully92 • 08 August 2012, 20:55
torrent downloaded
Show comment
not ps3 friendly
0
zainleo915 • 06 August 2012, 13:35 Show comment
audio: 10video: 10
-1
zainleo915 • 06 August 2012, 13:35 Show comment
Great movie i love this movie u should watch this what a movie
0
anonymous • 05 August 2012, 17:50 Show comment
audio: 10video: 10
verry fappable
0
anonymous • 05 August 2012, 17:49 Show comment
fapable
0
tinabina956 • 04 August 2012, 23:09
torrent downloaded
Show comment
audio: 7video: 5
1
D3nn15303 • 01 August 2012, 03:51
torrent downloaded
Show comment
Quality is fine. Movie sucks!
0
ottomansword1205 • 23 July 2012, 20:38
torrent downloaded
Show comment
audio: 7video: 7
Show More

User Opinions

capitolfi10509, rayron4453, ViKTORIOUS3555, sideshow311137, NzmHkmT1043, MadNesSGp949, Geordie21011504, KoodoriKyuuki303, Abudi295, DaHo128 ... And 14 more
filesh991, D3nn15303, Kenshinsama211
Report a bug