Giorni di tuono - Days of Thunder [DivX - Ita Mp3][Tntvillage](MIRCrew)

seeders: 3
leechers: 0
Added on Aug 17, 2010 in Movies
Torrent verified. Downloaded 0 times.

Giorni di tuono - Days of Thunder [DivX - Ita Mp3][Tntvillage](MIRCrew) (Size: 701.11 MB)
  giorni di tuono.avi 701.11 MB

Description




by corsaro191





Giorni di tuono - Days of Thunder

image









.::.Scheda.::.



Titolo: Giorni di tuono - Days of Thunder

Nazionalità: USA

Anno: 1990

Genere: drammatico / sportivo

Regia: Tony Scott

Cast:

* Tom Cruise: Cole Trickle

* Michael Rooker: "Rowdy" Burns

* Nicole Kidman: Claire Lewicki

* Robert Duvall: Harry Hogge

* Randy Quaid: Tim

* Cary Elwes: Russ Wheeler

* John C. Reilly: Buck Bretherton

* Don Simpson: Aldo Benedetti













.::.Trama.::.

Il protagonista è Cole Trickle, pilota automobilistico proveniente dalle gare di prototipi e dotato di immenso talento. Dopo un provino (dove gli viene messa a disposizione l'auto del 2 volte campione della categoria Nascar, Rowdy), Cole viene ingaggiato da una scuderia emergente per correre proprio nella Nascar, con Harry Hogge a capo. Dopo un inizio molto difficile, fatto di incidenti e bravate, Cole vince per la prima volta sul circuito di Darlington con una manovra al limite dell'impossibile. Da qui inizia la rivalità con Rowdy, rivalità che vede Cole prevalere (con 5 vittorie in 6 gare) anche nel tifo. A Daytona, nella gara più importante della stagione, tuttavia, restano coinvolti in un incidente gravissimo, ma da cui si salvano entrambi, anche se in modo diverso: Cole infatti si è completamente ristabilito, mentre il trauma causata da Rowdy gli impedirà di tornare a correre. Proprio in ospedale Cole conosce la neurologa Claire Lewicki di cui si innamora subito, venendo infine ricambiato. Cole quindi può tornare, dopo una lunga degenza, a correre, ma il pilota da cui è stato sostituito, Russ Wheeler, si è dimostrato molto talentuoso. Il proprietario del Team, Tim, decide di costituire un altro team per far correre entrambi; lo scontro è inevitabile ed ad uscirne sconfitto (e licenziato, in seguito ad un incidente dopo l'ennesima vittoria di Russ) è Cole, assieme ad Harry. Tuttavia Cole vuole tornare a correre e l'occasione gli viene offerta da Rowdy, ormai diventato amico di Cole, che gli chiede di correre con la sua auto e piazzarla fra le prime cinque per rispettare gli impegni presi con gli sponsor prima dell'incidente. Cole richiede l'aiuto di Harry per quest'ultima gara, che si svolge nuovamente a Daytona. Dopo una partenza di gara titubante Cole, in fondo al gruppo, riesce a superare indenne un incidente simile a quello che lo aveva quasi ucciso. Da qui riacquista la fiducia in sè e, dopo una rimonta straordinaria (da ultimo a secondo) riuscirà, all'ultima curva, a battere anche Russ ed a trionfare sul mitico circuito di Daytona.







.::.Screenshot.::.



image







.::.Dati Rip.::.



General

Complete name : C:giorni di tuono.avi

Format : AVI

Format/Info : Audio Video Interleave

File size : 701 MiB

Duration : 1h 42mn

Overal bit rate : 953 Kbps

Writing library : VirtualDub build 13720/release



Video

Format : MPEG-4 Visual

Format settings, BVOP : Yes

Format settings, QPel : No

Format settings, GMC : No warpoints

Format settings, Matrix : Default

Codec ID : DIVX

Codec ID/Info : Project Mayo

Codec ID/Hint : DivX 4

Duration : 1h 42mn

Bit rate : 818 Kbps

Width : 720 pixels

Height : 304 pixels

Display aspect ratio : 2.35

Frame rate : 25.000 fps

Resolution : 8 bits

Scan type : Progressive

Bits/(Pixel*Frame) : 0.149

Stream size : 602 MiB



Audio

Format : MPEG Audio

Format version : Version 1

Format profile : Layer 3

Codec ID : 55

Codec ID/Hint : MP3

Duration : 1h 42mn

Bit rate mode : Constant

Bit rate : 128 Kbps

Channel(s) : 2 channels

Sampling rate : 48.0 KHz

Resolution : 16 bits

Video delay : 1s 200ms

Stream size : 94.2 MiB

Writing library : LAME3.91

Encoding settings : CBR




Sharing Widget


Download torrent
701.11 MB
seeders:3
leechers:0
Giorni di tuono - Days of Thunder [DivX - Ita Mp3][Tntvillage](MIRCrew)

Trackers

tracker name Status checked seeders leechers downloads
udp://tracker.tntvillage.scambioetico.org:2710/announce
outdated 17 Aug 2010 - - -
http://tracker.openbittorrent.com/announce
outdated 17 Aug 2010 - - -
udp://tracker.publicbt.com:80/announce
outdated 17 Aug 2010 - - -
udp://tracker.openbittorrent.com:80/announce
outdated 17 Aug 2010 - - -
http://tracker.publicbt.com/announce
deleted 11 Mar 2013 - - -
http://tracker.tntvillage.scambioetico.org:2710/announce
error 17 Aug 2010 - - -
µTorrent compatible trackers list

Locations

name
1337x
Torrent hash: a01ccda352b9986febc90928da658c0230c09d7f

All Comments

audio
9/10
video
9/10
please, leave only comments related to that torrent
or sign-in
0
aRc4nGeLo143 • 27 February 2012, 02:53
torrent downloaded
Show comment
audio: 9video: 9

User Opinions

Report a bug