Game of Thrones S02E04 720p HDTV x264-AVS

seeders: 57
leechers: 11
Added on Apr 23, 2012 by ChrisDen147247 in TV
Torrent verified. Downloaded 10 times.

Game of Thrones S02E04 720p HDTV x264-AVS (Size: 1.24 GB)
  Game.of.Thrones.S02E04.720p.HDTV.x264-AVS.mkv 1.24 GB

Description

Game of Thrones - Season 02, Episode 04
HDTV x264 - AVS Release
April 23, 2012

Complete name : Game.of.Thrones.S02E04.720p.HDTV.x264-AVS/Game.of.Thrones.S02E04.720p.HDTV.x264-AVS.mkv
Format : Matroska
Format version : Version 2
File size : 1.24 GiB
Duration : 52mn 34s
Overall bit rate : 3 377 Kbps
Encoded date : UTC 2012-04-23 01:58:06
Writing application : mkvmerge v5.5.0 ( Healer ) built on Apr 6 2012 21:43:24
Writing library : libebml v1.2.3 libmatroska v1.3.0
Format : AVC
Format/Info : Advanced Video Codec
Format profile : High L4.1
Format settings, CABAC : Yes
Format settings, ReFrames : 5 frames
Muxing mode : Header stripping
Codec ID : VMPEG4/ISO/AVC
Duration : 52mn 34s
Bit rate : 2 926 Kbps
Width : 1 280 pixels
Height : 720 pixels
Display aspect ratio : 16:9
Frame rate : 23.976 fps
Color space : YUV
Chroma subsampling : 4:2:0
Bit depth : 8 bits
Scan type : Progressive
Bits/(Pixel Frame) : 0.132
Stream size : 1.07 GiB (87%)
Writing library : x264 core 122 r2184 5c85e0a
Language : English
Default : Yes
Forced : No
Format : AC-3
Format/Info : Audio Coding 3
Mode extension : CM (complete main)
Muxing mode : Header stripping
Codec ID : AAC3
Duration : 52mn 34s
Bit rate mode : Constant
Bit rate : 384 Kbps
Channel(s) : 2 channels
Channel positions : Front: L R
Sampling rate : 48.0 KHz
Bit depth : 16 bits
Compression mode : Lossy
Stream size : 144 MiB (11%)
Default : Yes
Forced : No

Related Torrents

torrent name size files age seed leech

Sharing Widget


Download torrent
1.24 GB
seeders:57
leechers:11
Game of Thrones S02E04 720p HDTV x264-AVS

Trackers

tracker name Status checked seeders leechers downloads
udp://tracker.publicbt.com:80/announce
outdated 22 Jan 2014 - - -
udp://tracker.openbittorrent.com:80/announce
outdated 22 Jan 2014 - - -
udp://tracker.1337x.org:80/announce
outdated 14 Aug 2013 - - -
udp://tracker.istole.it:80/announce
outdated 14 Aug 2013 - - -
http://tracker.hexagon.cc:2710/announce
outdated 14 Aug 2013 - - -
http://exodus.desync.com:6969/announce
blocked 14 Aug 2013 - - -
udp://fr33domtracker.h33t.com:3310/announce
deleted 14 Aug 2013 - - -
µTorrent compatible trackers list

Locations

name author
KickassTorrents AJXM
Torrent hash: 44C2E4F5B08D83EB401B871C291482285E69FA21

All Comments

audio
8/10
video
9/10
please, leave only comments related to that torrent
or sign-in
1
Eliitti1840 • 01 December 2013, 22:49
torrent downloaded
Show comment
audio: 10video: 10
0
Freyr2984 • 21 November 2013, 21:42
torrent downloaded
Show comment
audio: 8video: 9
Thank you very much uploader! Good quality!
0
Shuvo67837426 • 25 September 2013, 21:49
torrent downloaded
Show comment
Thanx Man
0
mario21jorge2358 • 24 August 2013, 14:22
torrent downloaded
Show comment
audio: 10video: 9
Thanks
0
Jaeman1364 • 16 June 2013, 08:25
torrent downloaded
Show comment
audio: 8video: 8
-1
anonymous • 04 April 2013, 19:43 Show comment
doesnt work
0
jdoe1373307 • 01 April 2013, 04:48 Show comment
audio: 8video: 8
Great copy!!! Thx;)
0
yoooga151 • 28 January 2013, 07:24
torrent downloaded
Show comment
thanks
0
anonymous • 09 January 2013, 23:10 Show comment
audio: 6video: 6
Video skips a few seconds near to the end which is a bummer and ruins subtitle synchronization from that point...
Show More

User Opinions

TeGiiGii4471, ammarliaqat3106, markozlatni1275, ToxicSoldier1200, pankthesnake691, DurasR265, yoooga151, Lordmars50, CJB33, shuses20 ... And 482 more
Xnerdz1066, Teh_Reh_Rooster329, Lagueto294, masilli232, guillass231, fluxtilt214, mehmetipek81, linfries24, prof8911, iliad20001 ... And 9 more
Report a bug