From Dusk Till Dawn*1996*[BluRay][1080p][ENG, POL][Sub. POL]

seeders: 7
leechers: 2
Added on May 12, 2010 by albedo038870 in Movies > Highres Movies
Torrent verified by 1eyedwillie105.23K, 2 years and 4 months ago. Downloaded 10 times.

Available in versions: 1080p720pBDRipHDRiPDVDDVDRip
From Dusk Till Dawn*1996*[BluRay][1080p][ENG, POL][Sub. POL] (Size: 7.2 GB)
  From Dusk Till Dawn_BluRay_1080p_x264.mkv 7.2 GB

Description

From Dusk Till Dawn*1996*[BluRay][1080p][ENG, POL][Sub. POL]


General information:

Country: USA

Release Date: 19 January 1996

Genre: Action, Crime, Fantasy, Horror, Thriller

Director: Robert Rodriguez

Screenplay: Quentin Tarantino

Original Music by Graeme Revell

Cinematography by Guillermo Navarro

Duration: 1h 47mn

Language: English, Polish

Subtitles: Polish

Rating: 7.58/10 - 12412 votes

image


image


Cast:

Harvey Keitel ...  Jacob Fuller

George Clooney ...  Seth Gecko

Quentin Tarantino ...  Richard Gecko

Juliette Lewis ...  Kate Fuller

Ernest Liu ...  Scott Fuller

Salma Hayek ...  Satanico Pandemonium

Cheech Marin ...  Border Guard / Chet Pussy / Carlos

Danny Trejo ...  Razor Charlie

Tom Savini ...  Sex Machine

Fred Williamson ...  Frost

Michael Parks ...  Texas Ranger Earl McGraw

Brenda Hillhouse ...  Hostage Gloria Hill

John Saxon ...  FBI Agent Stanley Chase

Marc Lawrence ...  Old Timer Motel Owner

Kelly Preston ...  Newscaster Kelly Houge


Plot:

Two criminals and their hostages unknowingly seek temporary refuge in an establishment populated by vampires, with chaotic results.


Specifications:

General

Format                           : Matroska

Overall bit rate                 : 9 548 Kbps


Video

Format                           : AVC

Format/Info                      : Advanced Video Codec

Format profile                   : High@L4.0

Format settings, CABAC           : Yes

Format settings, ReFrames        : 3 frames

Muxing mode                      : Container profile=Unknown@4.0

Codec ID                         : V_MPEG4/ISO/AVC

Bit rate                         : 7 208 Kbps

Nominal bit rate                 : 7 414 Kbps

Width                            : 1 920 pixels

Height                           : 1 080 pixels

Display aspect ratio             : 16:9

Frame rate                       : 23.976 fps


Audio 1


Format                           : DTS

Format/Info                      : Digital Theater Systems

Codec ID                         : A_DTS

Bit rate mode                    : Constant

Bit rate                         : 1 510 Kbps

Channel(s)                       : 6 channels

Channel positions                : Front: L C R, Side: L R, LFE

Sampling rate                    : 48.0 KHz

Resolution                       : 24 bits

Stream size                      : 1.14 GiB (16%)

Language                         : English


Audio 2

Format                           : AC-3

Format/Info                      : Audio Coding 3

Codec ID                         : A_AC3

Bit rate mode                    : Constant

Bit rate                         : 320 Kbps

Channel(s)                       : 6 channels

Channel positions                : Front: L C R, Side: L R, LFE

Sampling rate                    : 48.0 KHz

Stream size                      : 247 MiB (3%)

Language                         : Polish


Text

Format                           : UTF-8

Codec ID                         : S_TEXT/UTF8

Codec ID/Info                    : UTF-8 Plain Text

Language                         : Polish

 

Related Torrents

torrent name size files age seed leech

Sharing Widget


Download torrent
7.2 GB
seeders:7
leechers:2
From Dusk Till Dawn*1996*[BluRay][1080p][ENG, POL][Sub. POL]

Trackers

tracker name Status checked seeders leechers downloads
udp://open.demonii.com:1337/announce
outdated 14 May 2014 - - -
udp://tracker.publicbt.com:80/announce
outdated 14 May 2014 - - -
udp://tracker.openbittorrent.com:80/announce
outdated 14 May 2014 - - -
udp://tracker.istole.it:80/announce
outdated 14 May 2014 - - -
udp://tracker.ccc.de:80/announce
deleted 14 May 2014 - - -
µTorrent compatible trackers list

Locations

name
KickassTorrents
ThePirateBay
Torrent hash: dc908456623425ee0d256e1dffba05675f8c3654

All Comments

audio
9/10
video
8/10
please, leave only comments related to that torrent
or sign-in
0
freakb0y3109 • 06 August 2014, 11:12
torrent downloaded
Show comment
audio: 10video: 10
Superb quality. Excellent torrent, thank you so much.
0
buyout251302 • 20 October 2012, 20:15
torrent downloaded
Show comment
audio: 8video: 8
nice movie :)
0
monty88555 • 03 April 2012, 03:14
torrent downloaded
Show comment
audio: 10video: 10
perfect!!!
0
matfle290 • 31 March 2012, 04:09
torrent downloaded
Show comment
audio: 10video: 10
great quality 10/10 slow to download :( thanks for the upload
0
anonymous • 11 February 2012, 16:09 Show comment
audio: 9video: 4
Fuck this --subme=1 you gotta be kidding!!!
0
Levittoux28 • 24 March 2011, 10:23
torrent downloaded
Show comment
audio: 10video: 10
I'm very sorry for comment/delete - problem with my browser!
Good 1080 torrent with Polish subtitles. (Minuses: not very good translation and lacj of English subtitles)
Dobry torrent z filmem w HD z polskimi napisami. Tłumaczenie napisów niezbyt dobre i brak ich angielskiej wersji.
0
TorrJab84 • 04 September 2010, 23:15
torrent downloaded
Show comment
audio: 10video: 10
Nice work. Good pic & audio.

User Opinions

CodeLiner3006, BrTN1716, Tintapper1633, emc2tolga1489, intelligentjerk930, nwg5817359, MrEdpoO92, TorrJab84, joeyblood83, Levittoux28 ... And 21 more
Report a bug