Friends With Kids 2011 SCREENER XVID AC3-TRiNiTY

seeders: 0
leechers: 1
Added on Dec 5, 2011 in Movies
Torrent verified. Downloaded 0 times.

Summary:
Two best friends decide to have a child together while keeping their relationship platonic, so they can avoid the toll kids can take on romantic relationships.
Submitted by MoonChild9771
report summary
Available in versions: 1080p720pBDRipHDRiPDVDDVDRipScreener
Friends With Kids 2011 SCREENER XVID AC3-TRiNiTY (Size: 1.37 GB)
  Allycat TRINITY.nfo 3.29 KB
  Friends With Kids 2011 XVID AC3-TRiNiTY.Sample.avi 12.64 MB
  Friends With Kids 2011 SCREENER XVID AC3-TRiNiTY.avi 1.35 GB
  Read this before playing this Video.txt 138 bytes
  torrent downloaded from www.scenetime.com.txt 138 bytes

Description

,
. http://www.scenetime.com/signup.php ---> Hottest scene tracker on the net !!!

Scenetime lucky draw is started , join now and be the winner . offer is limited

Join Now http://www.scenetime.com/signup.php

seed back for speed






...................................NFO:.................................................
ooooooooooooo ooooooooo. o8o ooooo ooo o8o ooooooooooooo oooooo oooo
8' 888 `8 `888 `Y88. `"' `888b. `8' `"' 8' 888 `8 `888. .8'
888 888 .d88' oooo 8 `88b. 8 oooo 888 `888. .8'
888 888ooo88P' `888 8 `88b. 8 `888 888 `888.8'
888 888`88b. 888 8 `88b.8 888 888 `888'
888 888 `88b. 888 8 `888 888 888 888
o888o o888o o888o o888o o8o `8 o888o o888o o888o
___________ ______
______ ___ /__ /____ _____________ __ /
_ __ `/_ /__ /__ / / / ___/ __ `/ __/
/ /_/ /_ / _ / _ /_/ // /__ / /_/ // /
\__,_/ /_/ /_/ _\__, / \___/ \__,_/ \__/
/____/








EnCoDer:Allycat



General
Complete name : Friends With Kids 2011 SCREENER XVID AC3-TRiNiTY.avi
Format : AVI
Format/Info : Audio Video Interleave
File size : 1.35 GiB
Duration : 1h 44mn
Overall bit rate : 1 857 Kbps
Writing library : VirtualDub build 30091/release

Video
ID : 0
Format : MPEG-4 Visual
Format profile : Advanced Simple@L5
Format settings, BVOP : 1
Format settings, QPel : No
Format settings, GMC : No warppoints
Format settings, Matrix : Default (H.263)
Muxing mode : Packed bitstream
Codec ID : XVID
Codec ID/Hint : XviD
Duration : 1h 44mn
Bit rate : 1 400 Kbps
Width : 720 pixels
Height : 400 pixels
Display aspect ratio : 16:9
Frame rate : 25.000 fps
Color space : YUV
Chroma subsampling : 4:2:0
Bit depth : 8 bits
Scan type : Progressive
Compression mode : Lossy
Bits/(Pixel*Frame) : 0.194
Stream size : 1.02 GiB (75%)
Writing library : XviD 1.2.1 (UTC 2008-12-04)

Audio
ID : 1
Format : AC-3
Format/Info : Audio Coding 3
Mode extension : CM (complete main)
Codec ID : 2000
Duration : 1h 44mn
Bit rate mode : Constant
Bit rate : 448 Kbps
Channel(s) : 2 channels
Channel positions : Front: L R
Sampling rate : 48.0 KHz
Bit depth : 16 bits
Compression mode : Lossy
Stream size : 334 MiB (24%)
Alignment : Aligned on interleaves
Interleave, duration : 40 ms (1.00 video frame)
Interleave, preload duration : 512 ms

Related Torrents

torrent name size files age seed leech

Sharing Widget


Download torrent
1.37 GB
seeders:0
leechers:1
Friends With Kids 2011 SCREENER XVID AC3-TRiNiTY

Trackers

tracker name Status checked seeders leechers downloads
udp://tracker.publicbt.com:80/announce
outdated 05 Dec 2011 - - -
http://tracker.openbittorrent.com/announce
outdated 05 Dec 2011 - - -
udp://tracker.openbittorrent.com:80/announce
outdated 05 Dec 2011 - - -
http://tracker.publicbt.com/announce
deleted 11 Mar 2013 - - -
ĀµTorrent compatible trackers list

Locations

name
ThePirateBay
Fenopy
Limetorrents
Torrent hash: 76b9820f4772f197112d16d06aa3395a8f20d487

All Comments

audio
0/10
video
0/10
please, leave only comments related to that torrent
or sign-in
Report a bug