Flashpoint Season 3

seeders: 4
leechers: 3
Added on Dec 22, 2009 in TV
Torrent verified. Downloaded 4 times.

Flashpoint Season 3 (Size: 3.08 GB)
  Flashpoint.S03E03.HDTV.XviD-2HD.[VTV].avi 350.64 MB
  Flashpoint.S03E09.READNFO.HDTV.XviD-2HD.[VTV].avi 350.39 MB
  flashpoint.0306.hdtv.xvid-notv.avi 350.24 MB
  Flashpoint.S03E07.HDTV.XviD-NoTV.[VTV].avi 350.22 MB
  flashpoint.0305.hdtv.xvid-notv.avi 350.21 MB
  Flashpoint.S03E01.HDTV.XviD-NoTV.[VTV].avi 350.18 MB
  Flashpoint.S03E02.HDTV.XviD-NoTV.avi 350.15 MB
  Flashpoint.S03E04.Custody.HDTV.XviD-2HD.[VTV].avi 349.71 MB
  Flashpoint.S03E08.HDTV.XviD-NoTV.[VTV].avi 349.19 MB
  Another great torrent!.txt 122 bytes
  Torrent downloaded from Demonoid.com.txt 47 bytes

Description

☆┌─┐ ─┐☆
 │▒│ /▒/
 │▒│/▒/
 │▒ /▒/─┬─┐
 │▒│▒|▒│▒│
┌┴─┴─┐-┘─┘ ●●BloodyRoses●●
│▒┌──┘▒▒▒│ ♪ ♫ ♪ ♫ ♪ ♫ ♪ ♫♪ ♫ ♪ ♫ ♪ ♫ ♪
└┐▒▒▒▒▒▒┌┘
 └┐▒▒▒▒┌ *Tested*
Tested on Ipod Touch 2nd gen 32gb and Ipod Classic 80Gb

Converting any Movies, TV shows, Music Videos, Music ect please post your request in the comments.

-----------------------------------------------------------------------------------

Do you want to host my file on your website? Want your tracker added to my torrents? Just post your tracker in the comments and I will add it to all of the torrents I release.

-----------------------------------------------------------------------------------

If you found something in any of my Torrents, consider that it may be a false positive and if you are sure please report it to me first.

Report Bad Torrents Here:
http://forum.suprbay.org/forumdisplay.php?fid=29

Please Leave A Comment

-----------------------------------------------------------------------------------

Screens:

-----------------------------------------------------------------------------------

Format : AVI
Format/Info : Audio Video Interleave
File size : 350 MiB
Duration : 42mn 33s
Overall bit rate : 1 150 Kbps
Writing application : transcode-1.0.2

Video
ID : 0
Format : MPEG-4 Visual
Format profile : AdvancedSimple@L5
Format settings, BVOP : Yes
Format settings, QPel : No
Format settings, GMC : No warppoints
Format settings, Matrix : Default (H.263)
Muxing mode : Packed bitstream
Codec ID : XVID
Codec ID/Hint : XviD
Duration : 42mn 33s
Bit rate : 1 014 Kbps
Width : 624 pixels
Height : 352 pixels
Display aspect ratio : 16:9
Frame rate : 23.976 fps
Resolution : 24 bits
Colorimetry : 4:2:0
Scan type : Progressive
Bits/(Pixel*Frame) : 0.192
Stream size : 309 MiB (88%)
Writing library : XviD 1.2.1 (UTC 2008-12-04)

Audio
ID : 1
Format : MPEG Audio
Format version : Version 1
Format profile : Layer 3
Codec ID : 55
Codec ID/Hint : MP3
Duration : 42mn 33s
Bit rate mode : Variable
Bit rate : 128 Kbps
Channel(s) : 2 channels
Sampling rate : 48.0 KHz
Resolution : 16 bits
Stream size : 37.7 MiB (11%)
Alignment : Aligned on interleaves
Interleave, duration : 24 ms (0.58 video frame)

Related Torrents

torrent name size files age seed leech

Sharing Widget


Download torrent
3.08 GB
seeders:4
leechers:3
Flashpoint Season 3

Trackers

tracker name Status checked seeders leechers downloads
udp://tracker.publicbt.com:80/announce
outdated 18 Jan 2014 - - -
udp://tracker.openbittorrent.com:80/announce
outdated 18 Jan 2014 - - -
http://genesis.1337x.org:1337/announce
outdated 28 Aug 2013 - - -
http://tracker.openbittorrent.com/announce
outdated 28 Aug 2013 - - -
http://tracker.publicbt.com/announce
deleted 28 Aug 2013 - - -
µTorrent compatible trackers list

Locations

name
ThePirateBay
Torrentzap
1337x
Torrent hash: c80af3dbf36e3243cc919245c3d963ace7283b1b

All Comments

audio
0/10
video
0/10
please, leave only comments related to that torrent
or sign-in
0
anonymous • 05 July 2013, 14:17 Show comment
These shows don't match what season 3, except for maybe 1 episode. The one of the arena being torn down. Please check your shows again because these are all wrong. Waste of time to download as it is.
0
GhostCaptain1227 • 28 December 2010, 11:51
torrent downloaded
Show comment
this is actually season 2, but still good quality.
0
anonymous • 28 June 2010, 12:21 Show comment
This is the end of season two. CBS cut it off halk way thru the second season. The Jews :D and now that they have nothing to air on friday nights it's back, Thank god... i was so mad when they put the airing on hold.... IMDB http://en.wikipedia.org/wiki/List_of_Flashpoint_episodes#Season_3
0
anonymous • 28 June 2010, 12:22 Show comment
sorry not imdb... Wikipedia
0
anonymous • 20 June 2010, 18:14 Show comment
ctv.ca.com it's a show from canada
0
anonymous • 02 May 2010, 05:47 Show comment
This is NOT season3, but season 2.
1
anonymous • 02 February 2010, 23:59 Show comment
Flashpoint season 3 just started in Jan. 2010so how do you have 9 episodes already?
0
anonymous • 07 April 2010, 22:52 Show comment
Actually according to IMDB it ran Sept - Nov 2009. You're catching reruns on another network perhaps?
0
anonymous • 15 June 2010, 16:01 Show comment
this is Season 02 E14 to E22 - E14 is "One Wrong Move" 3 Terrorist Bombs with the 3rd one booby trapped

User Opinions

Report a bug