Firefly - S01 ep 1-14 DVDRip.Xvid

seeders: 0
leechers: 0
Added on May 29, 2009 in TV
Torrent verified. Downloaded 0 times.

Firefly - S01 ep 1-14 DVDRip.Xvid (Size: 5.34 GB)
  Firefly - Season 1, Episode 1 - Serenity Pilot.avi 684.32 MB
  Firefly - Season 1, Episode 5 - Safe.avi 342.08 MB
  Firefly - Season 1, Episode 7 - Jaynestown.avi 342.07 MB
  Firefly - Season 1, Episode 8 - Out of Gas.avi 342.04 MB
  Firefly - Season 1, Episode 12 - The Message.avi 342.01 MB
  Firefly - Season 1, Episode 11 - Trash.avi 342.01 MB
  Firefly - Season 1, Episode 9 - Ariel.avi 342 MB
  Firefly - Season 1, Episode 4 - Shindig.avi 342 MB
  Firefly - Season 1, Episode 10 - War Stories.avi 341.99 MB
  Firefly - Season 1, Episode 14 - Objects in Space.avi 341.98 MB
  Firefly - Season 1, Episode 2 - The Train Job.avi 341.98 MB
  Firefly - Season 1, Episode 6 - Our Mrs Reynolds.avi 341.98 MB
  Firefly - Season 1, Episode 13 - Heart of Gold.avi 341.98 MB
  Firefly - Season 1, Episode 3 - Bushwhacked.avi 341.98 MB
  Firefly - Season 1 - DVD Extras - Part 1-6.avi 322.48 MB
  Firefly - Season 1 - DVD Extras - Part 7.avi 19.57 MB
  Torrent downloaded from Demonoid.com.txt 47 bytes

Description

Season 1 (1-14)

Extras


General
Format : AVI
Format/Info : Audio Video Interleave
File size : 342 MiB
Overall bit rate : 1 119 Kbps
Writing application : VirtualDubMod 1.5.10.1 (build 2366/release)
Writing library : VirtualDubMod build 2366/release

Video
Format : MPEG-4 Visual
Format profile : Simple@L3
Format settings, Matrix : (H.263)
Codec ID : XVID
Duration : 42mn 44s
Bit rate : 917 Kbps
Width : 704 pixels
Height : 384 pixels
Display aspect ratio : 16/9
Frame rate : 23.976 fps
Resolution : 24 bits
Colorimetry : 4:2:0
Scan type : Progressive
Bits/(Pixel*Frame) : 0.141
Stream size : 280 MiB (82%)
Writing library : XviD 0.0.09 (UTC 2003-03-25)

Audio
Format : AC-3
Format/Info : Audio Coding 3
Format profile : Dolby Digital
Codec ID : 2000
Bit rate mode : Constant
Bit rate : 192 Kbps
Channel(s) : 2 channels
Channel positions : L R
Sampling rate : 48.0 KHz
Stream size : 58.7 MiB (17%)
Alignment : Split accross interleaves
Interleave, duration : 42 ms (1.00 video frame)
Interleave, preload duration : 500 ms

Related Torrents

torrent name size files age seed leech

Sharing Widget


Download torrent
5.34 GB
seeders:0
leechers:0
Firefly - S01 ep 1-14 DVDRip.Xvid

Trackers

tracker name Status checked seeders leechers downloads
http://tracker.openbittorrent.com/announce
outdated 22 Jul 2013 - - -
http://tracker.ccc.de/announce
outdated 22 Jul 2013 - - -
http://tracker.torrentbox.com:2710/announce
error 25 Sep 2010 - - -
http://inferno.demonoid.com:3411/announce
error 04 Apr 2010 - - -
µTorrent compatible trackers list

Locations

name
ThePirateBay
TorrentReactor
TorrentPortal
SumoTorrent
Torrent hash: 8361cdbdd402e1e8e4414a87078227761aa7ee0a

Top Comments

3
ninjapirate8943 • 04 Feb 2010, 14:48
torrent downloaded
Great show, too bad it was canceled early. Thanks for the upload.
2
BoWL53.48K • 06 Apr 2010, 18:37
8/10 thanks
2
fahd889417 • 18 Jun 2010, 21:32
torrent downloaded
A8/V8. Excellent t.v. show. I wish that hadn't been cancelled.

All Comments

audio
6/10
video
8/10
please, leave only comments related to that torrent
or sign-in
0
Ishmish3508 • 17 September 2013, 01:07
torrent downloaded
Show comment
audio: 6video: 9
Awesome show...smile
0
rohohonan26 • 31 August 2013, 21:00 Show comment
audio: 1video: 8
I got no sound
0
TakTicS564 • 18 June 2013, 20:41
torrent downloaded
Show comment
audio: 9video: 8
Thanks
0
an.monkshood101 • 04 June 2013, 02:14 Show comment
audio: 10video: 10
-1
anonymous • 20 May 2013, 20:58 Show comment
audio: 1video: 7
sound is low. 200% is a wisper.. bad quality
0
LORD MARSHALL16 • 15 July 2012, 22:20 Show comment
I GOT NO SOUND, WHAT IN THE DANG DOTTLE.
0
Blademan9291559 • 26 April 2012, 18:39
torrent downloaded
Show comment
audio: 9video: 9
0
moviedoctor401 • 31 January 2011, 06:01
torrent downloaded
Show comment
Wonderful thank you!
0
anonymous • 14 January 2011, 06:23 Show comment
No sound...
Show More

User Opinions

BoWL53.48K, Stoned623352, TheRebel1414, CitizenGeek1334, fahd889417, Underdog104, ninjapirate8943, AlkoLoiK43, 04carrolld39, tony3526 ... And 47 more
thamos2
Report a bug