Final Destination 1 2000 720p BRRiP Dual Audio Hindi EngSub--ChEtAn

seeders: 3
leechers: 5
Added on Dec 14, 2010 in Movies > Highres Movies
Torrent verified. Downloaded 10 times.

Available in versions: 1080p720pHDRiPDVDRipx264TeleSync
Final Destination 1 2000 720p BRRiP Dual Audio Hindi EngSub--ChEtAn (Size: 580.71 MB)
  Final Destination 1 2000 720p BRRiP Dual Audio Hindi Eng[Sub]--ChEtAn.mkv 577.47 MB
  sample.mkv 3.25 MB
  Torrent_downloaded_from_AhaShare.com.txt 59 bytes
  Torrent_downloaded_from_Demonoid.com.txt 47 bytes
  tracked_by_h33t_com.txt 23 bytes

Description



Language : Hindi, English

Subtitles : English



Director : James Wong

Writers : Glen Morgan (screenplay), James Wong (screenplay)

Stars : Devon Sawa, Ali Larter and Kerr Smith

Genres : Horror | Thriller

Sample : Included



Alex is boarding his plane to France on a school trip, when he suddenly gets a premonition that the plane will explode. When Alex and a group of students are thrown off the plane, to their horror, the plane does in fact explode. Alex must now work out Death\'s plan, as each of the surviving students falls victim. Whilst preventing the worst from happening, Alex must also dodge the FBI, which believes Alex caused the explosion.


Quote:General
Complete name : L:\\Final Destination 1.mkv
Format : Matroska
File size : 577 MiB
Duration : 1h 37mn
Overall bit rate : 824 Kbps
Encoded date : UTC 2010-12-13 14:13:11
Writing application : mkvmerge v4.3.0 (\'Escape from the Island\') built on Sep 5 2010 10:30:51
Writing library : libebml v1.0.0 + libmatroska v1.0.0

Video
ID : 1
Format : AVC
Format/Info : Advanced Video Codec
Format profile : High@L4.1
Format settings, CABAC : Yes
Format settings, ReFrames : 2 frames
Muxing mode : Header stripping
Codec ID : V_MPEG4/ISO/AVC
Duration : 1h 37mn
Bit rate : 680 Kbps
Width : 1 280 pixels
Height : 690 pixels
Display aspect ratio : 1.850
Frame rate : 19.181 fps
Color space : YUV
Chroma subsampling : 4:2:0
Bit depth : 8 bits
Scan type : Progressive
Bits/(Pixel*Frame) : 0.040
Stream size : 476 MiB (82%)
Language : English

Audio #1
ID : 2
Format : AC-3
Format/Info : Audio Coding 3
Mode extension : CM (complete main)
Muxing mode : Header stripping
Codec ID : A_AC3
Duration : 1h 37mn
Bit rate mode : Constant
Bit rate : 64.0 Kbps
Channel(s) : 2 channels
Channel positions : Front: L R
Sampling rate : 48.0 KHz
Bit depth : 16 bits
Video delay : 7ms
Stream size : 44.9 MiB (8%)
Title : English--ChEtAn
Language : English

Audio #2
ID : 3
Format : AC-3
Format/Info : Audio Coding 3
Mode extension : CM (complete main)
Muxing mode : Header stripping
Codec ID : A_AC3
Duration : 1h 37mn
Bit rate mode : Constant
Bit rate : 64.0 Kbps
Channel(s) : 2 channels
Channel positions : Front: L R
Sampling rate : 44.1 KHz
Bit depth : 16 bits
Video delay : 11ms
Stream size : 44.9 MiB (8%)
Title : Hindi--ChEtAn
Language : Hindi

Text
ID : 4
Format : UTF-8
Codec ID : S_TEXT/UTF8
Codec ID/Info : UTF-8 Plain Text
Language : English
















If You Like My Torrents Then Review Here


Related Torrents

torrent name size files age seed leech

Sharing Widget


Download torrent
580.71 MB
seeders:3
leechers:5
Final Destination 1 2000 720p BRRiP Dual Audio Hindi EngSub--ChEtAn

Trackers

tracker name Status checked seeders leechers downloads
udp://tracker.openbittorrent.com:80/announce
outdated 05 Jun 2014 - - -
udp://tracker.istole.it:80/announce
outdated 05 Jun 2014 - - -
udp://tracker.publicbt.com:80/announce
outdated 31 May 2014 - - -
udp://tracker.1337x.org:80/announce
outdated 17 Sep 2013 - - -
http://exodus.desync.com:6969/announce
blocked 17 Sep 2013 - - -
udp://fr33domtracker.h33t.com:3310/announce
deleted 17 Sep 2013 - - -
udp://tracker.ccc.de:80/announce
deleted 17 Sep 2013 - - -
ĀµTorrent compatible trackers list

Locations

name
ExtraTorrent
1337x
ExtraTorrent
KickassTorrents
Torrent hash: 373b32369ecc5d15430e3ae772447a724101fecf

All Comments

audio
8/10
video
8/10
please, leave only comments related to that torrent
or sign-in
0
evildead18973 • 19 May 2014, 14:47
torrent downloaded
Show comment
audio: 9video: 9
nice
0
Aadat_jal539 • 28 March 2014, 14:14
torrent downloaded
Show comment
audio: 10video: 10
Very Good Print. Thanks to Uploader biggrin
0
lightningbolt872 • 02 May 2013, 03:19
torrent downloaded
Show comment
audio: 9video: 9
0
xumith347 • 28 April 2013, 10:11
torrent downloaded
Show comment
audio: 8video: 9
nice torrent thank uploder :)
-1
anonymous • 23 April 2013, 02:43 Show comment
never mind!
0
anonymous • 22 April 2013, 21:49 Show comment
Great Torrent!
0
anonymous • 22 April 2013, 21:48 Show comment
I love "Final Destination" movies. They are so exciting and hardcore!
0
ravirikki1401 • 21 April 2013, 14:19
torrent downloaded
Show comment
audio: 8video: 8
nice print
0
anonymous • 27 February 2013, 22:27 Show comment
thank you
0
anonymous • 31 January 2013, 11:45 Show comment
thanks
Show More

User Opinions

khush sidhu6947, vikalpg4074, mdls3372182, Sheribo1455, ravirikki1401, vns015481, naga messi198, Haad97, difrynt72, deep241251 ... And 99 more
General Armorus2558, MOHIIII1117, sakib30994386, gabjag1332, subedar.saini310, buyout251302, Werkaholik213, boykayuri183, abirbo166, scotiabear59 ... And 7 more
Report a bug