Femmine Contro Maschi - AC3 Xvid

seeders: 2
leechers: 0
Added on Mar 8, 2011 by Neminis215 in Movies
Downloaded 1,305 times.

Summary:
No summary yet
Available in versions: HDRiPDVDRipMPEG-4
Femmine Contro Maschi - AC3 Xvid (Size: 764.15 MB)
  Femmine.Contro.Maschi.2011..avi 764.15 MB

Description

Versione CAM ma comunque discreta (audio e video 6)


General
Complete name : Femmine.Contro.Maschi.2011..avi
Format : AVI
Format/Info : Audio Video Interleave
File size : 764 MiB
Duration : 1h 33mn
Overall bit rate : 1 139 Kbps

Video
ID : 0
Format : MPEG-4 Visual
Format profile : Advanced Simple@L5
Format settings, BVOP : 2
Format settings, QPel : No
Format settings, GMC : No warppoints
Format settings, Matrix : Default (H.263)
Codec ID : XVID
Codec ID/Hint : XviD
Duration : 1h 33mn
Bit rate : 969 Kbps
Width : 672 pixels
Height : 286 pixels
Display aspect ratio : 2.35:1
Frame rate : 25.000 fps
Color space : YUV
Chroma subsampling : 4:2:0
Bit depth : 8 bits
Scan type : Progressive
Compression mode : Lossy
Bits/(Pixel*Frame) : 0.202
Stream size : 650 MiB (85%)
Writing library : XviD 1.2.1 (UTC 2008-12-04)

Audio
ID : 1
Format : AC-3
Format/Info : Audio Coding 3
Mode extension : CM (complete main)
Codec ID : 2000
Duration : 1h 33mn
Bit rate mode : Constant
Bit rate : 160 Kbps
Channel(s) : 2 channels
Channel positions : Front: L R
Sampling rate : 44.1 KHz
Bit depth : 16 bits
Compression mode : Lossy
Delay relative to video : 2s 995ms
Stream size : 107 MiB (14%)
Alignment : Split accross interleaves
Interleave, duration : 35 ms (0.87 video frame)

Related Torrents

torrent name size files age seed leech

Sharing Widget


Download torrent
764.15 MB
seeders:2
leechers:0
Femmine Contro Maschi - AC3 Xvid

Trackers

tracker name Status checked seeders leechers downloads
http://genesis.1337x.org:1337/announce
outdated 13 Jul 2011 - - -
http://nemesis.1337x.org/announce
outdated 13 Jul 2011 - - -
http://tracker.openbittorrent.com/announce
outdated 08 Mar 2011 - - -
udp://tracker.openbittorrent.com:80/announce
outdated 08 Mar 2011 - - -
udp://tracker.publicbt.com:80/announce
outdated 08 Mar 2011 - - -
http://exodus.desync.com:6969/announce
blocked 23 Aug 2012 - - -
http://tracker.publicbt.com/announce
deleted 11 Mar 2013 - - -
µTorrent compatible trackers list

Locations

name
KickassTorrents
Torrent hash: 944cf3d7fd4545472c74f5c7c55db4a01eaf9f86

All Comments

audio
2/10
video
2/10
please, leave only comments related to that torrent
or sign-in
0
anonymous • 14 April 2011, 15:52 Show comment
awful
0
anonymous • 14 April 2011, 15:52 Show comment
audio: 1video: 1
0
markodm293 • 12 March 2011, 11:35
torrent downloaded
Show comment
audio: 4video: 4
si vede male
è registrato al cinema e il cameramen nn sta un momento fermo -_-
0
anonymous • 12 March 2011, 07:32 Show comment
informazioni sul file come si vede?

User Opinions

markodm293
Report a bug