Fast And Furious 6 2013 CAM Xvid Mp3-MiLLENiUM

seeders: 874
leechers: 172
Added on May 19, 2013 by MiLLENiUM176 in Movies
Torrent verified. Downloaded 72,878 times.

Fast And Furious 6 2013 CAM Xvid Mp3-MiLLENiUM (Size: 1.56 GB)
  fast and furious 6 2013 cam xvid mp3-MiLLENiUM.avi 1.55 GB
  fast and furious 6 2013 cam xvid mp3-MiLLENiUM.avi.txt 7.95 KB
  sample.avi 13.64 MB

Description

General

Complete name : fast and furious 6 2013 cam xvid mp3-MiLLENiUM.avi

Source : 720P CAM CODER [THANKS]

Format : AVI

Format/Info : Audio Video Interleave

File size : 1.55 GiB

Duration : 2h 0mn

Overall bit rate : 1 837 Kbps

Writing application : VirtualDubMod 1.5.10.2 (build 2540/release)

Writing library : VirtualDubMod build 2540/release
Video

ID : 0

Format : MPEG-4 Visual

Format profile : Advanced Simple@L5

Format settings, BVOP : 2

Format settings, QPel : No

Format settings, GMC : No warppoints

Format settings, Matrix : Default (H.263)

Muxing mode : Packed bitstream

Codec ID : XVID

Codec ID/Hint : XviD

Duration : 2h 0mn

Bit rate : 1 689 Kbps

Width : 720 pixels

Height : 304 pixels

Display aspect ratio : 2.35:1

Frame rate : 50.000 fps

Color space : YUV

Chroma subsampling : 4:2:0

Bit depth : 8 bits

Scan type : Progressive

Compression mode : Lossy

Bits/(Pixel*Frame) : 0.154

Stream size : 1.43 GiB (92%)

Writing library : XviD 64
Audio

ID : 1

Format : MPEG Audio

Format version : Version 1

Format profile : Layer 3

Codec ID : 55

Codec ID/Hint : MP3

Duration : 2h 0mn

Bit rate mode : Constant

Bit rate : 128 Kbps

Channel(s) : 2 channels

Sampling rate : 44.1 KHz

Compression mode : Lossy

Stream size : 111 MiB (7%)

Alignment : Split accross interleaves

Interleave, duration : 20 ms (1.00 video frame)

Interleave, preload duration : 500 ms


Notes :
lots of cam movement in this...

cropped most as i can without ruining what picture there is

alterd the useual gamma,hue,saturation with our filters

would have been easy to use a smoother on this i decided against it

that way you can see what detail there is

normalised audio and ran threw a "fronts" filter
sample included shows movement and dark scenes
enjoy
Screens :



GREETZ TO ALL THAT MAKE THE EFFORT !!
RESPECT TO INFERNO,DEVILDEEDS,OFFLINE,26K AND ALL THE FRIENDS THAT HELP THE CAUSE
something to offer ?

we are after encoders, cappers, pre release dvds / blurays, cam sources

if you can help the cause please contact us on millenium@hushmail.me

Related Torrents

torrent name size files age seed leech

Sharing Widget


Download torrent
1.56 GB
seeders:874
leechers:172
Fast And Furious 6 2013 CAM Xvid Mp3-MiLLENiUM

Trackers

tracker name Status checked seeders leechers downloads
udp://9.rarbg.com:2710/announce
outdated 29 Jun 2013 - - -
udp://tracker.publicbt.com:80/announce
outdated 29 Jun 2013 - - -
udp://tracker.openbittorrent.com:80/announce
outdated 29 Jun 2013 - - -
udp://tracker.istole.it:80/announce
outdated 29 Jun 2013 - - -
http://exodus.desync.com/announce
blocked 29 Jun 2013 - - -
udp://fr33dom.h33t.com:3310/announce
deleted 29 Jun 2013 - - -
udp://fr33domtracker.h33t.com:3310/announce
deleted 29 Jun 2013 - - -
ĀµTorrent compatible trackers list

Locations

name
KickassTorrents
ExtraTorrent
Torrent hash: F9BA010F3F0B109AF0CDDEE4F42BFDF0C3BF1A76

Top Comments

7
anonymous • 22 May 2013, 14:34
Then why comment about it!?! Download, watch, then comment.

All Comments

audio
5/10
video
4/10
please, leave only comments related to that torrent
or sign-in
0
anonymous • 23 May 2014, 07:23 Show comment
crap quality
0
TsunamiBoy516 • 22 May 2014, 16:24
torrent downloaded
Show comment
Thanks.,...
0
HopenDarkness70111 • 28 March 2014, 21:51
torrent downloaded
Show comment
thank you
0
MNA891093 • 19 October 2013, 08:43
torrent downloaded
Show comment
audio: 10video: 10
Awesome Upload...Thnxx mate
0
degreen420123 • 09 June 2013, 04:54
torrent downloaded
Show comment
audio: 9video: 5
good movie but the cam moved about every 10 minutes .
Show More

User Opinions

Naskal3654, smallfry221493, MataMita755, djsikes586, mreents464, adela_victoria462, tttsakalos273, babisz255, cwest191, OldGhost2 ... And 91 more
valcrow1128, stswiz646, zoumpaios505, Kostasxk456, yoc1985399, OldSkoolMusic211, Berries516163, verapacheco130, lexaprosa119, ^^ImGone^^7 ... And 4 more
Report a bug