Fast 5 2011 TS V2 x264 Feel-Free

seeders: 3
leechers: 0
Added on May 1, 2011 in Movies
Torrent verified. Downloaded 11,962 times.

Summary:
Dominic Toretto and his crew of street racers plan a massive heist to buy their freedom while in the sights of a powerful Brazilian drug lord and a dangerous federal agent.
Submitted by Dr.YeTii264.33K
report summary
Fast 5 2011 TS V2 x264 Feel-Free (Size: 940.76 MB)
  Fast & Furious 5 2011 Fast Five TS V2 x264 Feel-Free.mp4 938.04 MB
  Fast & Furious 5 2011 Fast Five TS V2 x264 Feel-Free.nfo 2.67 KB
  Fast & Furious 5 2011 Fast Five TS V2 x264 Feel-Free.srt 63.65 KB
  Fast-and-Furious-5-French-Poster.jpg 136.33 KB
  Torrent downloaded from extratorrent.com.txt 119 bytes
  vlcsnap-00001.png 399.83 KB
  vlcsnap-00002.png 333.25 KB
  vlcsnap-00003.png 307.57 KB
  vlcsnap-00004.png 322.18 KB
  vlcsnap-00005.png 371 KB
  vlcsnap-00006.png 332.23 KB
  vlcsnap-00007.png 298.14 KB
  vlcsnap-00008.png 225.88 KB

Description

Genre:Action | Crime | Drama
Language:English
IMDb:http://www.imdb.com/title/tt1596343/
Source:IMAGINE Thanks
Subtitles:Romana

Format : MPEG-4
Format profile : Base Media
Codec ID : isom
File size : 938 MiB
Duration : 1h 56mn
Overall bit rate : 1 123 Kbps

Video
Format profile : High@L4.1
Format settings, CABAC : Yes
Format settings, ReFrames : 3 frames
Codec ID : avc1
Codec ID/Info : Advanced Video Coding
Duration : 1h 56mn
Bit rate mode : Variable
Bit rate : 897 Kbps
Maximum bit rate : 3 897 Kbps
Width : 720 pixels
Height : 304 pixels
Display aspect ratio : 2.35:1
Frame rate mode : Constant
Frame rate : 23.976 fps
Color space : YUV
Chroma subsampling : 4:2:0
Bit depth : 8 bits
Scan type : Progressive
Bits/(Pixel*Frame) : 0.171
Stream size : 748 MiB (80%)
Writing library : x264


Audio
ID : 2
Format : AAC
Format/Info : Advanced Audio Codec
Format version : Version 4
Format profile : LC
Format settings, SBR : No
Codec ID : 40
Duration : 1h 56mn
Bit rate mode : Variable
Bit rate : 224 Kbps
Maximum bit rate : 283 Kbps
Channel(s) : 2 channels
Channel positions : Front: L R
Sampling rate : 44.1 KHz
Stream size : 187 MiB (20%)


Plot:
Dominic and his crew find themselves on the wrong side of the law once again as they try to switch lanes between a ruthless drug lord and a relentless federal agent.

Screens:

http://www.pix2links.com/images/47050068996882014105.png
http://www.pix2links.com/images/44809441732729910563.png
http://www.pix2links.com/images/31439830476581974764.png
http://www.pix2links.com/images/32179263845820385216.png
http://www.pix2links.com/images/57129918242073351187.png
http://www.pix2links.com/images/64674688087628679479.png
http://www.pix2links.com/images/79874760755972853593.png
http://www.pix2links.com/images/76493184708773906018.png

Greets:

INK,CRYS,IMAGINE,LKRG,FXG,3Li,FLAWL3SS,TA,iLLUSiON,ViSiON,DTRG SAFCuk009,LU,TheFalcon007,MYSTiC,PrisM,Noir,WBZ,LAP,Rx,Kingdom,SAFCuk009+Fabreezy,HDLiTE,TWiZTED,ExtraTorrentRG.ELEKTRI4KA,MAGNAT,CM8
And to all the other p2p grps past and present.

Sharing Widget


Download torrent
940.76 MB
seeders:3
leechers:0
Fast 5 2011 TS V2 x264 Feel-Free

Trackers

tracker name Status checked seeders leechers downloads
http://10.rarbg.com/announce
private 09 May 2012 - - -
http://pow7.com/announce
outdated 09 May 2012 - - -
http://genesis.1337x.org:1337/announce
outdated 13 Jul 2011 - - -
http://exodus.1337x.org/announce
outdated 13 Jul 2011 - - -
http://nemesis.1337x.org/announce
outdated 13 Jul 2011 - - -
udp://tracker.publicbt.com:80/announce
outdated 01 May 2011 - - -
http://tracker.openbittorrent.com/announce
outdated 01 May 2011 - - -
udp://tracker.openbittorrent.com:80/announce
outdated 01 May 2011 - - -
http://tracker.publicbt.com/announce
deleted 11 Mar 2013 - - -
ĀµTorrent compatible trackers list

Locations

name
ThePirateBay
1337x
ExtraTorrent
Torrent hash: 29104f143a4c85e58bd41d293c10c446a3ae3257

All Comments

audio
6/10
video
5/10
please, leave only comments related to that torrent
or sign-in
0
thered6661452 • 05 June 2011, 22:18
torrent downloaded
Show comment
audio: 7video: 7
THANKS FOR BEING AMONGTHE FIRST WITH THE BEST QUALITY OF THAT TIME
0
b33m4n227 • 24 May 2011, 17:35
torrent downloaded
Show comment
audio: 8video: 8
0
new099246 • 24 May 2011, 13:49
torrent downloaded
Show comment
audio: 10video: 1
would be great if a little more time was put into setting up the cam position--just seeing half of the screen sucks, period.
0
Chrissaint1363 • 21 May 2011, 19:23
torrent downloaded
Show comment
audio: 6video: 4
it ok 4 a cam
0
chris8roxxxhigh7 • 20 May 2011, 12:08
torrent downloaded
Show comment
pretty good
0
babyr196017 • 15 May 2011, 19:06
torrent downloaded
Show comment
not a bad copy but could only watch it on pc
0
bec74730 • 14 May 2011, 15:38
torrent downloaded
Show comment
audio: 2video: 2
0
anonymous • 12 May 2011, 15:59 Show comment
looks goodl
0
r4dezign66 • 08 May 2011, 10:18
torrent downloaded
Show comment
audio: 7video: 7
Show More

User Opinions

JackAtKat4278, thered6661452, Chrissaint1363, TwistedNytmare72937, tom_beem910, WinfieldBlue377, b33m4n227, linsayw0379, babyr196017, wrx027 ... And 3 more
new099246, gardnz202, bec74730
Report a bug