Advertising (remove)

Eroticon 2002 Gangbang Competition (XXX)(iPod,PSP,Zune)

seeders: 2
leechers: 0
Added on Feb 10, 2011 in XXX > Video
Torrent verified. Downloaded 10 times.

Eroticon 2002 Gangbang Competition (XXX)(iPod,PSP,Zune) (Size: 245.43 MB)
  Eroticon 2002 Screen 1.jpg 275.62 KB
  Eroticon 2002 Screen 2.jpg 276.79 KB
  Eroticon 2002.m4v 244.89 MB
Advertising (remove)

Description

Klaudia Figura originally from Poland had sex with 646 men in on February 10th, 2002 at the First Annual World Gangbang Championship in Warsaw, Poland. 200 people viewed the event live on a large video screen.

Screenshots

http://d9dee557.picbucks.com

http://bdd8eb32.picbucks.com

Video
ID : 1
Format : AVC
Format/Info : Advanced Video Codec
Format profile : Baseline@L1.3
Format settings, CABAC : No
Format settings, ReFrames : 2 frames
Codec ID : avc1
Codec ID/Info : Advanced Video Coding
Duration : 1h 21mn
Bit rate mode : Variable
Bit rate : 350 Kbps
Width : 364 pixels
Height : 272 pixels
Display aspect ratio : 4:3
Frame rate mode : Variable
Frame rate : 23.976 fps
Minimum frame rate : 23.974 fps
Maximum frame rate : 23.981 fps
Color space : YUV
Chroma subsampling : 4:2:0
Bit depth : 8 bits
Scan type : Progressive
Bits/(Pixel*Frame) : 0.147
Stream size : 205 MiB (84%)
Writing library : x264 core 112

Audio
ID : 2
Format : AAC
Format/Info : Advanced Audio Codec
Format profile : LC
Codec ID : 40
Duration : 1h 21mn
Bit rate mode : Variable
Bit rate : 64.2 Kbps
Maximum bit rate : 110 Kbps
Channel(s) : 2 channels
Channel positions : Front: L R
Sampling rate : 48.0 KHz
Compression mode : Lossy
Stream size : 37.6 MiB (15%)

Screenshots

http://d9dee557.picbucks.com

http://bdd8eb32.picbucks.com

More Torrents...

http://thepiratebay.org/user/punter21/

Sharing Widget


Download torrent
245.43 MB
seeders:2
leechers:0
Eroticon 2002 Gangbang Competition (XXX)(iPod,PSP,Zune)

Trackers

tracker name Status checked seeders leechers downloads
udp://tracker.openbittorrent.com:80/announce
outdated 14 Apr 2014 - - -
udp://tracker.publicbt.com:80/announce
outdated 14 Apr 2014 - - -
http://exodus.1337x.org/announce
outdated 13 Jul 2011 - - -
http://tracker.openbittorrent.com/announce
outdated 10 Feb 2011 - - -
http://tracker.publicbt.com/announce
deleted 11 Mar 2013 - - -
ĀµTorrent compatible trackers list

Locations

name
ThePirateBay
1337x
Torrent hash: e327cf5e26629e01718b7924b724a492b99eead4

All Comments

audio
0/10
video
0/10
please, leave only comments related to that torrent
or sign-in

User Opinions

Report a bug