Enrique ft ludacris tonight i'm fucking you (Uncensensored)

seeders: 1
leechers: 1
Added on Jun 9, 2012 by sharad0311308 in Music
Torrent verified. Downloaded 2 times.

Enrique ft ludacris tonight i'm fucking you (Uncensensored) (Size: 75.05 MB)
  Enrique ft ludacris tonight i'm fucking you.mp4 75.05 MB

Description

Enrique ft ludacris tonight im fucking you (Uncensensored)
image
image
General
Complete name : Enrique ft ludacris tonight i'm fucking you.mp4
Format : MPEG-4
Format profile : Base Media
Codec ID : isom
File size : 75.1 MiB
Duration : 4mn 50s
Overall bit rate : 2 165 Kbps
Writing application : Lavf52.94.0
Video
ID : 1
Format : AVC
Format/Info : Advanced Video Codec
Format profile : Main@L3.1
Format settings, CABAC : Yes
Format settings, ReFrames : 2 frames
Codec ID : avc1
Codec ID/Info : Advanced Video Coding
Duration : 4mn 50s
Duration_FirstFrame : -83ms
Bit rate : 2 000 Kbps
Width : 1 280 pixels
Height : 720 pixels
Display aspect ratio : 16:9
Frame rate mode : Variable
Frame rate : 24.000 fps
Minimum frame rate : 8.000 fps
Maximum frame rate : 24.000 fps
Color space : YUV
Chroma subsampling : 4:2:0
Bit depth : 8 bits
Scan type : Progressive
Bits/(Pixel*Frame) : 0.090
Stream size : 70.4 MiB (94%)
Writing library : x264 core 112 r1834 a51816a
Encoding settings : cabac=1 / ref=1 / deblock=1:0:0 / analyse=0x1:0 / me=dia / subme=2 / psy=1 / psy_rd=0.00:0.00 / mixed_ref=0 / me_range=16 / chroma_me=1 / trellis=0 / 8x8dct=0 / cqm=0 / deadzone=21,11 / fast_pskip=1 / chroma_qp_offset=0 / threads=4 / sliced_threads=0 / nr=0 / decimate=1 / interlaced=0 / constrained_intra=0 / bframes=3 / b_pyramid=0 / b_adapt=1 / b_bias=0 / direct=3 / weightb=0 / open_gop=0 / weightp=2 / keyint=250 / keyint_min=25 / scenecut=40 / intra_refresh=0 / rc_lookahead=40 / rc=abr / mbtree=1 / bitrate=2000 / ratetol=1.0 / qcomp=0.60 / qpmin=10 / qpmax=51 / qpstep=4 / ip_ratio=1.41 / aq=1:1.00
Audio
ID : 2
Format : MPEG Audio
Format version : Version 1
Format profile : Layer 3
Mode : Joint stereo
Mode extension : MS Stereo
Codec ID : 6B
Duration : 4mn 50s
Bit rate mode : Constant
Bit rate : 128 Kbps
Channel(s) : 2 channels
Sampling rate : 44.1 KHz
Compression mode : Lossy
Delay relative to video : -1ms
Stream size : 4.44 MiB (6%)
Writing library : LAME3.98.4

Sharing Widget


Download torrent
75.05 MB
seeders:1
leechers:1
Enrique ft ludacris tonight i'm fucking you (Uncensensored)

Trackers

tracker name Status checked seeders leechers downloads
udp://tracker.openbittorrent.com:80/announce
outdated 31 Mar 2014 - - -
udp://tracker.publicbt.com:80/announce
outdated 31 Mar 2014 - - -
udp://tracker.istole.it:80/announce
outdated 27 Jul 2013 - - -
udp://tracker.1337x.org:80/announce
outdated 27 Jul 2013 - - -
http://exodus.desync.com:6969/announce
blocked 27 Jul 2013 - - -
udp://fr33domtracker.h33t.com:3310/announce
deleted 27 Jul 2013 - - -
ĀµTorrent compatible trackers list

Locations

name
KickassTorrents
Torrent hash: D363D2D84F6870AF8887DBDBABAB8D98BA258B28

All Comments

please, leave only comments related to that torrent
or sign-in
0
Zapped!!!!!1239 • 25 March 2014, 16:06
torrent downloaded
Show comment
couldnt download .. no seeds
0
s8sachin1833 • 26 January 2014, 08:34
torrent downloaded
Show comment
thx
0
OmNak241412 • 19 August 2013, 16:24
torrent downloaded
Show comment
Thnx Man!!!
0
kion2138 • 15 August 2012, 17:55
torrent downloaded
Show comment
audio: 8video: 8
nice upload A-8 V-8

User Opinions

Report a bug